Featured TV Shows


The Flash S04E21

Posted By: Tavaz
SD / HDTV IMDb
The Flash S04E21

The Flash S04E21
HDTV | MOV | 720x404 | Spanish | H264 @ 802 kbps | AAC @ 125 kbps | 40 min 7 s | 268 MiB
Genre: Drama

After a particle accelerator causes a freak storm, CSI Investigator Barry Allen is struck by lightning and falls into a coma. Months later he awakens with the power of super speed, granting him the ability to move through Central City like an unseen guardian angel. Though initially excited by his newfound powers, Barry is shocked to discover he is not the only "meta-human" who was created in the wake of the accelerator explosion – and not everyone is using their new powers for good. Barry partners with S.T.A.R. Labs and dedicates his life to protect the innocent. For now, only a few close friends and associates know that Barry is literally the fastest man alive, but it won't be long before the world learns what Barry Allen has become…The Flash.

the.flash.2014.s04e21.spanish.hdtv.x264-fcc.sample.mp4 (6.2 MB)
the.flash.2014.s04e21.spanish.hdtv.x264-fcc.mp4 (267.6 MB)



General
Complete name : ./the.flash.2014.s04e21.spanish.hdtv.x264-fcc.mp4
Format : MPEG-4
Format profile : Base Media
Codec ID : isom (isom/avc1)
File size : 268 MiB
Duration : 40 min 7 s
Overall bit rate mode : Variable
Overall bit rate : 932 kb/s
Encoded date : UTC 2018-06-02 16:31:11
Tagged date : UTC 2018-06-02 16:31:11

Video
ID : 1
Format : AVC
Format/Info : Advanced Video Codec
Format profile : High@L3.1
Format settings : CABAC / 5 Ref Frames
Format settings, CABAC : Yes
Format settings, RefFrames : 5 frames
Codec ID : avc1
Codec ID/Info : Advanced Video Coding
Duration : 40 min 7 s
Bit rate : 803 kb/s
Maximum bit rate : 3 262 kb/s
Width : 720 pixels
Height : 404 pixels
Display aspect ratio : 16:9
Frame rate mode : Constant
Frame rate : 25.000 FPS
Color space : YUV
Chroma subsampling : 4:2:0
Bit depth : 8 bits
Scan type : Progressive
Bits/(Pixel*Frame) : 0.110
Stream size : 230 MiB (86%)
Title : FCC 4ever
Writing library : x264 core 155 r2901 7d0ff22
Encoding settings : opencl=1 / cabac=1 / ref=5 / deblock=1:-1:-1 / analyse=0x3:0x113 / me=hex / subme=8 / psy=1 / psy_rd=1.00:0.00 / mixed_ref=1 / me_range=16 / chroma_me=1 / trellis=2 / 8x8dct=1 / cqm=0 / deadzone=21,11 / fast_pskip=1 / chroma_qp_offset=-2 / threads=13 / lookahead_threads=2 / sliced_threads=0 / nr=0 / decimate=1 / interlaced=0 / bluray_compat=0 / constrained_intra=0 / bframes=3 / b_pyramid=2 / b_adapt=1 / b_bias=0 / direct=3 / weightb=1 / open_gop=0 / weightp=2 / keyint=250 / keyint_min=25 / scenecut=40 / intra_refresh=0 / rc_lookahead=50 / rc=crf / mbtree=1 / crf=19.0 / qcomp=0.60 / qpmin=0 / qpmax=69 / qpstep=4 / ip_ratio=1.40 / aq=1:1.00
Encoded date : UTC 2018-06-02 16:31:11
Tagged date : UTC 2018-06-02 16:31:14
Color range : Limited
Matrix coefficients : BT.709

Audio
ID : 2
Format : AAC
Format/Info : Advanced Audio Codec
Format profile : LC
Codec ID : mp4a-40-2
Duration : 40 min 7 s
Bit rate mode : Variable
Bit rate : 125 kb/s
Maximum bit rate : 166 kb/s
Channel(s) : 2 channels
Channel positions : Front: L R
Sampling rate : 48.0 kHz
Frame rate : 46.875 FPS (1024 SPF)
Compression mode : Lossy
Stream size : 36.0 MiB (13%)
Title : FCC 4ever
Language : Spanish
Encoded date : UTC 2018-06-02 16:31:13
Tagged date : UTC 2018-06-02 16:31:14





The Flash S04E21


The Flash S04E21


The Flash S04E21


The Flash S04E21


The Flash S04E21

All episodes