Featured TV Shows


The Four: Battle for Stardom S01E01

Posted By: Tavaz
1080p (FullHD) / WEBRip IMDb
The Four: Battle for Stardom S01E01

The Four: Battle for Stardom S01E01
WEBRip | MKV | 1920x1080 | English | H264 @ 4920 kbps | AAC @ 126 kbps | 1 h 25 min | 3.02 GiB

Four super-talented and fiercely competitive singers, chosen from their auditions by the show’s panel of music industry experts, will try to defend their coveted spots on the stage, as they are challenged individually by new singers determined to replace them.

the.four.battle.for.stardom.s01e01.1080p.web.x264-tbs.mkv (3.0 GB)



General
Unique ID : 188160968327065464050948402028264800244 (0x8D8E7BFCD3F8D97B01F3363D1B83BFF4)
Complete name : ./the.four.battle.for.stardom.s01e01.1080p.web.x264-tbs.mkv
Format : Matroska
Format version : Version 4 / Version 2
File size : 3.02 GiB
Duration : 1 h 25 min
Overall bit rate : 5 078 kb/s
Encoded date : UTC 2018-01-12 01:09:44
Writing application : mkvmerge v8.8.0 ('Wind at my back') 64bit
Writing library : libebml v1.3.3 + libmatroska v1.4.4

Video
ID : 1
Format : AVC
Format/Info : Advanced Video Codec
Format profile : High@L4
Format settings : CABAC / 2 Ref Frames
Format settings, CABAC : Yes
Format settings, RefFrames : 2 frames
Codec ID : V_MPEG4/ISO/AVC
Duration : 1 h 25 min
Bit rate : 4 920 kb/s
Width : 1 920 pixels
Height : 1 080 pixels
Display aspect ratio : 16:9
Frame rate mode : Constant
Frame rate : 29.970 (30000/1001) FPS
Original frame rate : 30.000 FPS
Color space : YUV
Chroma subsampling : 4:2:0
Bit depth : 8 bits
Scan type : Progressive
Bits/(Pixel*Frame) : 0.079
Stream size : 2.94 GiB (97%)
Writing library : x264 core 148 r2579M 73ae2d1
Encoding settings : cabac=1 / ref=2 / deblock=1:0:0 / analyse=0x3:0x113 / me=hex / subme=2 / psy=1 / psy_rd=1.00:0.00 / mixed_ref=0 / me_range=16 / chroma_me=1 / trellis=0 / 8x8dct=1 / cqm=0 / deadzone=21,11 / fast_pskip=1 / chroma_qp_offset=0 / threads=1 / lookahead_threads=1 / sliced_threads=0 / nr=250 / decimate=1 / interlaced=0 / bluray_compat=0 / stitchable=1 / constrained_intra=0 / bframes=0 / weightp=1 / keyint=250 / keyint_min=25 / scenecut=40 / intra_refresh=0 / rc_lookahead=10 / rc=2pass / mbtree=1 / bitrate=4920 / ratetol=1.0 / qcomp=0.60 / qpmin=5 / qpmax=69 / qpstep=4 / cplxblur=20.0 / qblur=0.5 / ip_ratio=1.40 / aq=1:1.00
Default : Yes
Forced : No

Audio
ID : 2
Format : AAC
Format/Info : Advanced Audio Codec
Format profile : HE-AAC / LC
Format settings : Implicit
Codec ID : A_AAC-2
Duration : 1 h 25 min
Bit rate : 127 kb/s
Channel(s) : 2 channels
Channel positions : Front: L R
Sampling rate : 48.0 kHz / 24.0 kHz
Frame rate : 23.438 FPS (1024 SPF)
Compression mode : Lossy
Stream size : 77.2 MiB (2%)
Default : Yes
Forced : No





The Four: Battle for Stardom S01E01


The Four: Battle for Stardom S01E01


The Four: Battle for Stardom S01E01


The Four: Battle for Stardom S01E01


The Four: Battle for Stardom S01E01

All episodes