Featured TV Shows


The Frozen Dead S01E01

Posted By: Tavaz
1080p (FullHD) / WEB-DL IMDb
The Frozen Dead S01E01

The Frozen Dead S01E01
WEB-DL | MKV | 1920x1080 | French | H264 @ 3830 kbps | E-AC-3 @ 128 kbps | 45 min 18 s | 1.24 GiB
Subtitles: German, Italian, Spanish, French, English
Genre: Drama

A horrific discovery in a small town nestled high in the French Pyrenees begins to unravel a dark mystery that has been hidden for years. On an unforgiving winter morning, a group of workers discover the headless body of a horse, hanging suspended from the edge of a frozen cliff. Commandant Martin Servaz starts investigating and soon discovers a dark story of madness and revenge.

The.Frozen.Dead.S01E01.Episode.1.1080p.NF.WEB-DL.DD.2.0.H.264-SiGMA.mkv (1.2 GB)



General
Unique ID : 247831840044029457950091902315021882252 (0xBA72AD1AE024429E8DC09D7FDEA2538C)
Complete name : ./The.Frozen.Dead.S01E01.Episode.1.1080p.NF.WEB-DL.DD.2.0.H.264-SiGMA.mkv
Format : Matroska
Format version : Version 4 / Version 2
File size : 1.24 GiB
Duration : 45 min 18 s
Overall bit rate mode : Variable
Overall bit rate : 3 916 kb/s
Encoded date : UTC 2018-01-01 21:27:40
Writing application : mkvmerge v17.0.0 ('Be Ur Friend') 64-bit
Writing library : libebml v1.3.5 + libmatroska v1.4.8

Video
ID : 1
Format : AVC
Format/Info : Advanced Video Codec
Format profile : Main@L4
Format settings : CABAC / 3 Ref Frames
Format settings, CABAC : Yes
Format settings, RefFrames : 3 frames
Codec ID : V_MPEG4/ISO/AVC
Duration : 45 min 18 s
Bit rate mode : Variable
Bit rate : 3 830 kb/s
Maximum bit rate : 5 745 kb/s
Width : 1 920 pixels
Height : 1 080 pixels
Display aspect ratio : 16:9
Frame rate mode : Constant
Frame rate : 25.000 FPS
Color space : YUV
Chroma subsampling : 4:2:0
Bit depth : 8 bits
Scan type : Progressive
Bits/(Pixel*Frame) : 0.074
Stream size : 1.20 GiB (97%)
Writing library : x264 core 118
Encoding settings : cabac=1 / ref=3 / deblock=1:0:0 / analyse=0x1:0x111 / me=umh / subme=10 / psy=1 / psy_rd=1.00:0.00 / mixed_ref=1 / me_range=24 / chroma_me=1 / trellis=2 / 8x8dct=0 / cqm=0 / deadzone=21,11 / fast_pskip=1 / chroma_qp_offset=-2 / threads=6 / sliced_threads=0 / nr=0 / decimate=1 / interlaced=0 / bluray_compat=0 / constrained_intra=0 / bframes=2 / b_pyramid=0 / b_adapt=2 / b_bias=0 / direct=3 / weightb=1 / open_gop=0 / weightp=2 / keyint=50 / keyint_min=26 / scenecut=0 / intra_refresh=0 / rc_lookahead=0 / rc=2pass / mbtree=1 / bitrate=3830 / ratetol=1.0 / qcomp=0.50 / qpmin=6 / qpmax=51 / qpstep=4 / cplxblur=20.0 / qblur=0.5 / vbv_maxrate=5745 / vbv_bufsize=7660 / nal_hrd=vbr / ip_ratio=1.40 / aq=1:1.00
Default : Yes
Forced : No

Audio
ID : 2
Format : E-AC-3
Format/Info : Enhanced Audio Coding 3
Format settings, Endianness : Big
Codec ID : A_EAC3
Duration : 45 min 18 s
Bit rate mode : Constant
Bit rate : 128 kb/s
Channel(s) : 2 channels
Channel positions : Front: L R
Sampling rate : 48.0 kHz
Frame rate : 187.500 FPS (256 SPF)
Compression mode : Lossy
Stream size : 41.5 MiB (3%)
Language : French
Service kind : Complete Main
Default : Yes
Forced : No

Text #1
ID : 3
Format : UTF-8
Codec ID : S_TEXT/UTF8
Codec ID/Info : UTF-8 Plain Text
Duration : 41 min 45 s
Bit rate : 47 b/s
Count of elements : 473
Stream size : 14.5 KiB (0%)
Language : English
Default : No
Forced : No

Text #2
ID : 4
Format : UTF-8
Codec ID : S_TEXT/UTF8
Codec ID/Info : UTF-8 Plain Text
Duration : 43 min 56 s
Bit rate : 47 b/s
Count of elements : 521
Stream size : 15.3 KiB (0%)
Language : French
Default : No
Forced : No

Text #3
ID : 5
Format : UTF-8
Codec ID : S_TEXT/UTF8
Codec ID/Info : UTF-8 Plain Text
Duration : 44 min 43 s
Bit rate : 45 b/s
Count of elements : 457
Stream size : 15.0 KiB (0%)
Language : Spanish
Default : No
Forced : No

Text #4
ID : 6
Format : UTF-8
Codec ID : S_TEXT/UTF8
Codec ID/Info : UTF-8 Plain Text
Duration : 44 min 42 s
Bit rate : 47 b/s
Count of elements : 476
Stream size : 15.4 KiB (0%)
Language : Italian
Default : No
Forced : No

Text #5
ID : 7
Format : UTF-8
Codec ID : S_TEXT/UTF8
Codec ID/Info : UTF-8 Plain Text
Duration : 44 min 38 s
Bit rate : 49 b/s
Count of elements : 476
Stream size : 16.2 KiB (0%)
Language : German
Default : No
Forced : No





The Frozen Dead S01E01


The Frozen Dead S01E01


The Frozen Dead S01E01


The Frozen Dead S01E01


The Frozen Dead S01E01

All episodes