Featured TV Shows


The Ghost Bride S01E01

Posted By: Tavaz
1080p (FullHD) / WEB-DL IMDb
The Ghost Bride S01E01

The Ghost Bride S01E01
WEB-DL | MKV | 1920x1080 | Chinese | H264 @ 4157 kbps | E-AC-3 @ 640 kbps | 49 min 14 s | 1.65 GiB
Subtitles: Swedish, Norwegian Bokmal, Turkish, Romanian, Dutch, Korean, Danish, Indonesian, Hungarian, Vietnamese, Malay, French, Russian, Thai, Finnish, Spanish, Greek, English, Italian, Portuguese, Chinese, German, Japanese, Czech, Hebrew, Polish, Arabic
Genre: Mystery, Drama, Family


A woman living in 1890s Colonial-era Malacca receives a proposal to become the ghost bride of a a wealthy family's recently-deceased son.

7acb075a5eff4393b692ed71dc101d48.mkv (1.7 GB)



General
Unique ID : 274845316927751504988522353208196409784 (0xCEC548581E3C8428F8B9F65265C529B8)
Complete name : ./7acb075a5eff4393b692ed71dc101d48.mkv
Format : Matroska
Format version : Version 4 / Version 2
File size : 1.65 GiB
Duration : 49 min 14 s
Overall bit rate mode : Variable
Overall bit rate : 4 804 kb/s
Encoded date : UTC 2020-01-25 23:37:09
Writing application : mkvmerge v19.0.0 ('Brave Captain') 64-bit
Writing library : libebml v1.3.5 + libmatroska v1.4.8

Video
ID : 1
Format : AVC
Format/Info : Advanced Video Codec
Format profile : Main@L4
Format settings : CABAC / 3 Ref Frames
Format settings, CABAC : Yes
Format settings, RefFrames : 3 frames
Codec ID : V_MPEG4/ISO/AVC
Duration : 49 min 14 s
Bit rate mode : Variable
Bit rate : 4 157 kb/s
Nominal bit rate : 4 420 kb/s
Maximum bit rate : 6 630 kb/s
Width : 1 920 pixels
Height : 1 080 pixels
Display aspect ratio : 16:9
Frame rate mode : Constant
Frame rate : 24.000 FPS
Color space : YUV
Chroma subsampling : 4:2:0
Bit depth : 8 bits
Scan type : Progressive
Bits/(Pixel*Frame) : 0.084
Stream size : 1.43 GiB (87%)
Writing library : x264 core 148 r2715 7e75228
Encoding settings : cabac=1 / ref=3 / deblock=1:0:0 / analyse=0x1:0x111 / me=umh / subme=10 / psy=1 / psy_rd=1.00:0.00 / mixed_ref=1 / me_range=24 / chroma_me=1 / trellis=2 / 8x8dct=0 / cqm=0 / deadzone=21,11 / fast_pskip=1 / chroma_qp_offset=-2 / threads=6 / lookahead_threads=1 / sliced_threads=0 / nr=0 / decimate=1 / interlaced=0 / bluray_compat=0 / stitchable=1 / constrained_intra=0 / bframes=2 / b_pyramid=0 / b_adapt=2 / b_bias=0 / direct=3 / weightb=1 / open_gop=0 / weightp=2 / keyint=250 / keyint_min=24 / scenecut=0 / intra_refresh=0 / rc_lookahead=48 / rc=2pass / mbtree=1 / bitrate=4420 / ratetol=1.0 / qcomp=0.50 / qpmin=6 / qpmax=51 / qpstep=4 / cplxblur=20.0 / qblur=0.5 / vbv_maxrate=6630 / vbv_bufsize=8840 / nal_hrd=vbr / filler=0 / ip_ratio=1.40 / aq=1:1.00
Default : Yes
Forced : No

Audio
ID : 2
Format : E-AC-3
Format/Info : Enhanced Audio Coding 3
Format settings, Endianness : Big
Codec ID : A_EAC3
Duration : 49 min 14 s
Bit rate mode : Constant
Bit rate : 640 kb/s
Channel(s) : 6 channels
Channel positions : Front: L C R, Side: L R, LFE
Sampling rate : 48.0 kHz
Frame rate : 187.500 FPS (256 SPF)
Compression mode : Lossy
Stream size : 225 MiB (13%)
Title : Mandarin
Language : Chinese
Service kind : Complete Main
Default : Yes
Forced : No

Text #1
ID : 3
Format : UTF-8
Codec ID : S_TEXT/UTF8
Codec ID/Info : UTF-8 Plain Text
Duration : 48 min 48 s
Bit rate : 48 b/s
Count of elements : 695
Stream size : 17.4 KiB (0%)
Language : English
Default : No
Forced : No

Text #2
ID : 4
Format : UTF-8
Codec ID : S_TEXT/UTF8
Codec ID/Info : UTF-8 Plain Text
Duration : 48 min 46 s
Bit rate : 73 b/s
Count of elements : 758
Stream size : 26.2 KiB (0%)
Language : Arabic
Default : No
Forced : No

Text #3
ID : 5
Format : UTF-8
Codec ID : S_TEXT/UTF8
Codec ID/Info : UTF-8 Plain Text
Duration : 48 min 46 s
Bit rate : 47 b/s
Count of elements : 725
Stream size : 16.8 KiB (0%)
Language : Czech
Default : No
Forced : No

Text #4
ID : 6
Format : UTF-8
Codec ID : S_TEXT/UTF8
Codec ID/Info : UTF-8 Plain Text
Duration : 48 min 46 s
Bit rate : 47 b/s
Count of elements : 745
Stream size : 17.0 KiB (0%)
Language : Danish
Default : No
Forced : No

Text #5
ID : 7
Format : UTF-8
Codec ID : S_TEXT/UTF8
Codec ID/Info : UTF-8 Plain Text
Duration : 48 min 46 s
Bit rate : 48 b/s
Count of elements : 726
Stream size : 17.4 KiB (0%)
Language : German
Default : No
Forced : No

Text #6
ID : 8
Format : UTF-8
Codec ID : S_TEXT/UTF8
Codec ID/Info : UTF-8 Plain Text
Duration : 48 min 46 s
Bit rate : 78 b/s
Count of elements : 755
Stream size : 28.1 KiB (0%)
Language : Greek
Default : No
Forced : No

Text #7
ID : 9
Format : UTF-8
Codec ID : S_TEXT/UTF8
Codec ID/Info : UTF-8 Plain Text
Duration : 48 min 46 s
Bit rate : 51 b/s
Count of elements : 718
Stream size : 18.5 KiB (0%)
Title : British
Language : English
Default : No
Forced : No

Text #8
ID : 10
Format : UTF-8
Codec ID : S_TEXT/UTF8
Codec ID/Info : UTF-8 Plain Text
Duration : 48 min 46 s
Bit rate : 62 b/s
Count of elements : 850
Stream size : 22.2 KiB (0%)
Title : British SDH
Language : English
Default : No
Forced : No

Text #9
ID : 11
Format : UTF-8
Codec ID : S_TEXT/UTF8
Codec ID/Info : UTF-8 Plain Text
Duration : 48 min 46 s
Bit rate : 46 b/s
Count of elements : 750
Stream size : 16.5 KiB (0%)
Language : Spanish
Default : No
Forced : No

Text #10
ID : 12
Format : UTF-8
Codec ID : S_TEXT/UTF8
Codec ID/Info : UTF-8 Plain Text
Duration : 48 min 46 s
Bit rate : 40 b/s
Count of elements : 758
Stream size : 14.6 KiB (0%)
Title : European
Language : Spanish
Default : No
Forced : No

Text #11
ID : 13
Format : UTF-8
Codec ID : S_TEXT/UTF8
Codec ID/Info : UTF-8 Plain Text
Duration : 48 min 46 s
Bit rate : 48 b/s
Count of elements : 753
Stream size : 17.4 KiB (0%)
Language : Finnish
Default : No
Forced : No

Text #12
ID : 14
Format : UTF-8
Codec ID : S_TEXT/UTF8
Codec ID/Info : UTF-8 Plain Text
Duration : 48 min 46 s
Bit rate : 48 b/s
Count of elements : 724
Stream size : 17.3 KiB (0%)
Language : French
Default : No
Forced : No

Text #13
ID : 15
Format : UTF-8
Codec ID : S_TEXT/UTF8
Codec ID/Info : UTF-8 Plain Text
Duration : 48 min 46 s
Bit rate : 73 b/s
Count of elements : 754
Stream size : 26.1 KiB (0%)
Language : Hebrew
Default : No
Forced : No

Text #14
ID : 16
Format : UTF-8
Codec ID : S_TEXT/UTF8
Codec ID/Info : UTF-8 Plain Text
Duration : 48 min 46 s
Bit rate : 44 b/s
Count of elements : 758
Stream size : 16.1 KiB (0%)
Language : Hungarian
Default : No
Forced : No

Text #15
ID : 17
Format : UTF-8
Codec ID : S_TEXT/UTF8
Codec ID/Info : UTF-8 Plain Text
Duration : 48 min 46 s
Bit rate : 44 b/s
Count of elements : 756
Stream size : 15.9 KiB (0%)
Language : Indonesian
Default : No
Forced : No

Text #16
ID : 18
Format : UTF-8
Codec ID : S_TEXT/UTF8
Codec ID/Info : UTF-8 Plain Text
Duration : 48 min 46 s
Bit rate : 47 b/s
Count of elements : 758
Stream size : 17.1 KiB (0%)
Language : Italian
Default : No
Forced : No

Text #17
ID : 19
Format : UTF-8
Codec ID : S_TEXT/UTF8
Codec ID/Info : UTF-8 Plain Text
Duration : 48 min 47 s
Bit rate : 47 b/s
Count of elements : 572
Stream size : 17.1 KiB (0%)
Language : Japanese
Default : No
Forced : No

Text #18
ID : 20
Format : UTF-8
Codec ID : S_TEXT/UTF8
Codec ID/Info : UTF-8 Plain Text
Duration : 48 min 46 s
Bit rate : 67 b/s
Count of elements : 655
Stream size : 24.1 KiB (0%)
Language : Korean
Default : No
Forced : No

Text #19
ID : 21
Format : UTF-8
Codec ID : S_TEXT/UTF8
Codec ID/Info : UTF-8 Plain Text
Duration : 44 min 47 s
Bit rate : 96 b/s
Count of elements : 794
Stream size : 31.6 KiB (0%)
Title : SDH
Language : Korean
Default : No
Forced : No

Text #20
ID : 22
Format : UTF-8
Codec ID : S_TEXT/UTF8
Codec ID/Info : UTF-8 Plain Text
Duration : 48 min 46 s
Bit rate : 45 b/s
Count of elements : 758
Stream size : 16.1 KiB (0%)
Language : Malay
Default : No
Forced : No

Text #21
ID : 23
Format : UTF-8
Codec ID : S_TEXT/UTF8
Codec ID/Info : UTF-8 Plain Text
Duration : 48 min 46 s
Bit rate : 46 b/s
Count of elements : 758
Stream size : 16.7 KiB (0%)
Language : Norwegian Bokmal
Default : No
Forced : No

Text #22
ID : 24
Format : UTF-8
Codec ID : S_TEXT/UTF8
Codec ID/Info : UTF-8 Plain Text
Duration : 48 min 46 s
Bit rate : 48 b/s
Count of elements : 748
Stream size : 17.4 KiB (0%)
Language : Dutch
Default : No
Forced : No

Text #23
ID : 25
Format : UTF-8
Codec ID : S_TEXT/UTF8
Codec ID/Info : UTF-8 Plain Text
Duration : 48 min 46 s
Bit rate : 44 b/s
Count of elements : 652
Stream size : 16.0 KiB (0%)
Language : Polish
Default : No
Forced : No

Text #24
ID : 26
Format : UTF-8
Codec ID : S_TEXT/UTF8
Codec ID/Info : UTF-8 Plain Text
Duration : 48 min 46 s
Bit rate : 47 b/s
Count of elements : 723
Stream size : 17.1 KiB (0%)
Language : Portuguese
Default : No
Forced : No

Text #25
ID : 27
Format : UTF-8
Codec ID : S_TEXT/UTF8
Codec ID/Info : UTF-8 Plain Text
Duration : 48 min 46 s
Bit rate : 46 b/s
Count of elements : 751
Stream size : 16.8 KiB (0%)
Title : Brazilian
Language : Portuguese
Default : No
Forced : No

Text #26
ID : 28
Format : UTF-8
Codec ID : S_TEXT/UTF8
Codec ID/Info : UTF-8 Plain Text
Duration : 48 min 46 s
Bit rate : 50 b/s
Count of elements : 755
Stream size : 18.1 KiB (0%)
Language : Romanian
Default : No
Forced : No

Text #27
ID : 29
Format : UTF-8
Codec ID : S_TEXT/UTF8
Codec ID/Info : UTF-8 Plain Text
Duration : 48 min 46 s
Bit rate : 71 b/s
Count of elements : 753
Stream size : 25.6 KiB (0%)
Language : Russian
Default : No
Forced : No

Text #28
ID : 30
Format : UTF-8
Codec ID : S_TEXT/UTF8
Codec ID/Info : UTF-8 Plain Text
Duration : 48 min 46 s
Bit rate : 48 b/s
Count of elements : 751
Stream size : 17.5 KiB (0%)
Language : Swedish
Default : No
Forced : No

Text #29
ID : 31
Format : UTF-8
Codec ID : S_TEXT/UTF8
Codec ID/Info : UTF-8 Plain Text
Duration : 48 min 46 s
Bit rate : 121 b/s
Count of elements : 747
Stream size : 43.3 KiB (0%)
Language : Thai
Default : No
Forced : No

Text #30
ID : 32
Format : UTF-8
Codec ID : S_TEXT/UTF8
Codec ID/Info : UTF-8 Plain Text
Duration : 48 min 46 s
Bit rate : 160 b/s
Count of elements : 884
Stream size : 57.5 KiB (0%)
Title : SDH
Language : Thai
Default : No
Forced : No

Text #31
ID : 33
Format : UTF-8
Codec ID : S_TEXT/UTF8
Codec ID/Info : UTF-8 Plain Text
Duration : 48 min 46 s
Bit rate : 48 b/s
Count of elements : 756
Stream size : 17.2 KiB (0%)
Language : Turkish
Default : No
Forced : No

Text #32
ID : 34
Format : UTF-8
Codec ID : S_TEXT/UTF8
Codec ID/Info : UTF-8 Plain Text
Duration : 48 min 46 s
Bit rate : 64 b/s
Count of elements : 689
Stream size : 23.1 KiB (0%)
Language : Vietnamese
Default : No
Forced : No

Text #33
ID : 35
Format : UTF-8
Codec ID : S_TEXT/UTF8
Codec ID/Info : UTF-8 Plain Text
Duration : 47 min 19 s
Bit rate : 48 b/s
Count of elements : 709
Stream size : 16.7 KiB (0%)
Language : Chinese
Default : No
Forced : No

Text #34
ID : 36
Format : UTF-8
Codec ID : S_TEXT/UTF8
Codec ID/Info : UTF-8 Plain Text
Duration : 43 min 13 s
Bit rate : 53 b/s
Count of elements : 745
Stream size : 16.9 KiB (0%)
Title : Simplified
Language : Chinese
Default : No
Forced : No

Text #35
ID : 37
Format : UTF-8
Codec ID : S_TEXT/UTF8
Codec ID/Info : UTF-8 Plain Text
Duration : 48 min 45 s
Bit rate : 68 b/s
Count of elements : 859
Stream size : 24.6 KiB (0%)
Title : Simplified SDH
Language : Chinese
Default : No
Forced : No

Text #36
ID : 38
Format : UTF-8
Codec ID : S_TEXT/UTF8
Codec ID/Info : UTF-8 Plain Text
Duration : 43 min 13 s
Bit rate : 53 b/s
Count of elements : 703
Stream size : 17.0 KiB (0%)
Title : Traditional
Language : Chinese
Default : No
Forced : No

Text #37
ID : 39
Format : UTF-8
Codec ID : S_TEXT/UTF8
Codec ID/Info : UTF-8 Plain Text
Duration : 48 min 46 s
Bit rate : 69 b/s
Count of elements : 857
Stream size : 24.7 KiB (0%)
Title : Traditional SDH
Language : Chinese
Default : No
Forced : No





The Ghost Bride S01E01


The Ghost Bride S01E01


The Ghost Bride S01E01


The Ghost Bride S01E01


The Ghost Bride S01E01

All episodes