Featured TV Shows


The Good Doctor S01E01

Posted By: Tavaz
720p (HD) / WEB-DL IMDb
The Good Doctor S01E01

The Good Doctor S01E01
WEB-DL | MKV | 1280x720 | English | H264 @ 3013 kbps | E-AC-3 @ 640 kbps | 43 min 24 s | 1.11 GiB
Subtitles: English
Genre: Drama

A young surgeon with Savant syndrome is recruited into the surgical unit of a prestigious hospital. The question will arise: can a person who doesn't have the ability to relate to people actually save their lives?

19c925d3a42f4ae3976b9b1b7d2ce8af.mkv (1.1 GB)



General
Unique ID : 71750780291454504143098362374580265317 (0x35FAB297DB430AD44E698D1605FAE165)
Complete name : ./19c925d3a42f4ae3976b9b1b7d2ce8af.mkv
Format : Matroska
Format version : Version 4 / Version 2
File size : 1.11 GiB
Duration : 43 min 24 s
Overall bit rate mode : Variable
Overall bit rate : 3 656 kb/s
Encoded date : UTC 2017-10-13 07:23:51
Writing application : mkvmerge v8.8.0 ('Wind at my back') 64bit
Writing library : libebml v1.3.3 + libmatroska v1.4.4

Video
ID : 1
Format : AVC
Format/Info : Advanced Video Codec
Format profile : High@L3.1
Format settings : CABAC / 5 Ref Frames
Format settings, CABAC : Yes
Format settings, RefFrames : 5 frames
Codec ID : V_MPEG4/ISO/AVC
Duration : 43 min 24 s
Bit rate mode : Variable
Bit rate : 3 014 kb/s
Maximum bit rate : 4 500 kb/s
Width : 1 280 pixels
Height : 720 pixels
Display aspect ratio : 16:9
Frame rate mode : Constant
Frame rate : 23.976 (24000/1001) FPS
Color space : YUV
Chroma subsampling : 4:2:0
Bit depth : 8 bits
Scan type : Progressive
Bits/(Pixel*Frame) : 0.136
Stream size : 936 MiB (82%)
Default : Yes
Forced : No
Color range : Limited
Color primaries : BT.709
Transfer characteristics : BT.709
Matrix coefficients : BT.709

Audio
ID : 2
Format : E-AC-3
Format/Info : Enhanced Audio Coding 3
Format settings, Endianness : Big
Codec ID : A_EAC3
Duration : 43 min 24 s
Bit rate mode : Constant
Bit rate : 640 kb/s
Channel(s) : 6 channels
Channel positions : Front: L C R, Side: L R, LFE
Sampling rate : 48.0 kHz
Frame rate : 187.500 FPS (256 SPF)
Compression mode : Lossy
Stream size : 199 MiB (18%)
Language : English
Service kind : Complete Main
Default : Yes
Forced : No

Text
ID : 3
Format : UTF-8
Codec ID : S_TEXT/UTF8
Codec ID/Info : UTF-8 Plain Text
Duration : 43 min 12 s
Bit rate : 66 b/s
Count of elements : 775
Stream size : 21.0 KiB (0%)
Language : English
Default : No
Forced : No





The Good Doctor S01E01


The Good Doctor S01E01


The Good Doctor S01E01


The Good Doctor S01E01


The Good Doctor S01E01

All episodes