Featured TV Shows


The Good Doctor S01E03

Posted By: Tavaz
720p (HD) / WEB-DL IMDb
The Good Doctor S01E03

The Good Doctor S01E03
WEB-DL | MKV | 1280x720 | English | H264 @ 2361 kbps | E-AC-3 @ 640 kbps | 41 min 54 s | 900 MiB
Subtitles: English
Genre: Drama

A young surgeon with Savant syndrome is recruited into the surgical unit of a prestigious hospital. The question will arise: can a person who doesn't have the ability to relate to people actually save their lives?

f1bcf9286fa44c4abb788578093041e3.mkv (900.3 MB)



General
Unique ID : 153513352217226071090849308330958382640 (0x737D989FE5C1C02BA0770591BD15E630)
Complete name : ./f1bcf9286fa44c4abb788578093041e3.mkv
Format : Matroska
Format version : Version 4 / Version 2
File size : 900 MiB
Duration : 41 min 54 s
Overall bit rate mode : Variable
Overall bit rate : 3 003 kb/s
Encoded date : UTC 2017-10-11 02:19:55
Writing application : mkvmerge v16.0.0 ('Protest') 64-bit
Writing library : libebml v1.3.5 + libmatroska v1.4.8

Video
ID : 1
Format : AVC
Format/Info : Advanced Video Codec
Format profile : High@L3.1
Format settings : CABAC / 5 Ref Frames
Format settings, CABAC : Yes
Format settings, RefFrames : 5 frames
Codec ID : V_MPEG4/ISO/AVC
Duration : 41 min 54 s
Bit rate mode : Variable
Bit rate : 2 361 kb/s
Maximum bit rate : 4 500 kb/s
Width : 1 280 pixels
Height : 720 pixels
Display aspect ratio : 16:9
Frame rate mode : Constant
Frame rate : 23.976 (24000/1001) FPS
Color space : YUV
Chroma subsampling : 4:2:0
Bit depth : 8 bits
Scan type : Progressive
Bits/(Pixel*Frame) : 0.107
Stream size : 708 MiB (79%)
Default : Yes
Forced : No
Color range : Limited
Color primaries : BT.709
Transfer characteristics : BT.709
Matrix coefficients : BT.709

Audio
ID : 2
Format : E-AC-3
Format/Info : Enhanced Audio Coding 3
Format settings, Endianness : Big
Codec ID : A_EAC3
Duration : 41 min 54 s
Bit rate mode : Constant
Bit rate : 640 kb/s
Channel(s) : 6 channels
Channel positions : Front: L C R, Side: L R, LFE
Sampling rate : 48.0 kHz
Frame rate : 187.500 FPS (256 SPF)
Compression mode : Lossy
Stream size : 192 MiB (21%)
Language : English
Service kind : Complete Main
Default : Yes
Forced : No

Text
ID : 3
Format : UTF-8
Codec ID : S_TEXT/UTF8
Codec ID/Info : UTF-8 Plain Text
Duration : 41 min 11 s
Bit rate : 72 b/s
Count of elements : 820
Stream size : 22.0 KiB (0%)
Language : English
Default : No
Forced : No





The Good Doctor S01E03


The Good Doctor S01E03


The Good Doctor S01E03


The Good Doctor S01E03


The Good Doctor S01E03

All episodes