Featured TV Shows


Good Doctor S01E09

Posted By: Tavaz
Good Doctor S01E09

Good Doctor S01E09
AVI | 720x404 | MP4V-ES @ 1063 kbps | MPEG Audio @ 128 kbps | 40 min 40 s | 350 MiB
Genre: Drame

Atteint du syndrome d'Asperger, le chirurgien Shaun Murphy rejoint un prestigieux hôpital de Boston. Isolé, il éprouve des difficultés à s'intégrer à l'équipe. Mais en mettant son incroyable don au service de ses patients, ce jeune prodige suscite l'admiration de ses collègues, même les plus sceptiques.

The.Good.Doctor.S01E09.avi (350.5 MB)



General
Complete name : ./The.Good.Doctor.S01E09.avi
Format : AVI
Format/Info : Audio Video Interleave
File size : 350 MiB
Duration : 40 min 40 s
Overall bit rate : 1 205 kb/s
Writing application : Lavf58.17.103
IsTruncated : Yes

Video
ID : 0
Format : MPEG-4 Visual
Format profile : Advanced Simple@L5
Format settings : BVOP2
Format settings, BVOP : 2
Format settings, QPel : No
Format settings, GMC : No warppoints
Format settings, Matrix : Default (H.263)
Muxing mode : Packed bitstream
Codec ID : XVID
Codec ID/Hint : XviD
Duration : 40 min 40 s
Bit rate : 1 064 kb/s
Width : 720 pixels
Height : 404 pixels
Display aspect ratio : 16:9
Frame rate : 25.000 FPS
Color space : YUV
Chroma subsampling : 4:2:0
Bit depth : 8 bits
Scan type : Progressive
Compression mode : Lossy
Bits/(Pixel*Frame) : 0.146
Stream size : 309 MiB (88%)
Writing library : XviD 67

Audio
ID : 1
Format : MPEG Audio
Format version : Version 1
Format profile : Layer 3
Codec ID : 55
Codec ID/Hint : MP3
Duration : 40 min 40 s
Bit rate mode : Constant
Bit rate : 128 kb/s
Channel(s) : 2 channels
Sampling rate : 48.0 kHz
Compression mode : Lossy
Stream size : 37.2 MiB (11%)
Alignment : Aligned on interleaves
Interleave, duration : 24 ms (0.60 video frame)
Interleave, preload duration : 24 ms





Good Doctor S01E09


Good Doctor S01E09


Good Doctor S01E09


Good Doctor S01E09


Good Doctor S01E09

All episodes