Featured TV Shows


The Good Doctor S01E11

Posted By: Tavaz
1080p (FullHD) / WEBRip IMDb
The Good Doctor S01E11

The Good Doctor S01E11
WEBRip | MKV | 1920x1080 | English | H264 @ 5495 kbps | E-AC-3 @ 640 kbps | 43 min 10 s | 1.85 GiB
Subtitles: English
Genre: Drama

A young surgeon with Savant syndrome is recruited into the surgical unit of a prestigious hospital. The question will arise: can a person who doesn't have the ability to relate to people actually save their lives?

The.Good.Doctor.S01E11.Islands.Part.One.1080p.AMZN.WEB-DL.DD+5.1.H.264-QOQ.mkv (1.9 GB)



General
Unique ID : 186076855843395660959492265453707060593 (0x8BFD194F0F91732E4A20FB1F9683E571)
Complete name : ./The.Good.Doctor.S01E11.Islands.Part.One.1080p.AMZN.WEB-DL.DD+5.1.H.264-QOQ.mkv
Format : Matroska
Format version : Version 4 / Version 2
File size : 1.85 GiB
Duration : 43 min 10 s
Overall bit rate mode : Variable
Overall bit rate : 6 138 kb/s
Encoded date : UTC 2018-01-11 15:23:10
Writing application : mkvmerge v18.0.0 ('Apricity') 64-bit
Writing library : libebml v1.3.5 + libmatroska v1.4.8

Video
ID : 1
Format : AVC
Format/Info : Advanced Video Codec
Format profile : High@L4
Format settings : CABAC / 4 Ref Frames
Format settings, CABAC : Yes
Format settings, RefFrames : 4 frames
Codec ID : V_MPEG4/ISO/AVC
Duration : 43 min 10 s
Bit rate mode : Variable
Bit rate : 5 496 kb/s
Maximum bit rate : 15.0 Mb/s
Width : 1 920 pixels
Height : 1 080 pixels
Display aspect ratio : 16:9
Frame rate mode : Constant
Frame rate : 23.976 (24000/1001) FPS
Color space : YUV
Chroma subsampling : 4:2:0
Bit depth : 8 bits
Scan type : Progressive
Bits/(Pixel*Frame) : 0.111
Stream size : 1.66 GiB (90%)
Default : Yes
Forced : No
Color range : Limited
Color primaries : BT.709
Transfer characteristics : BT.709
Matrix coefficients : BT.709

Audio
ID : 2
Format : E-AC-3
Format/Info : Enhanced Audio Coding 3
Format settings, Endianness : Big
Codec ID : A_EAC3
Duration : 43 min 10 s
Bit rate mode : Constant
Bit rate : 640 kb/s
Channel(s) : 6 channels
Channel positions : Front: L C R, Side: L R, LFE
Sampling rate : 48.0 kHz
Frame rate : 187.500 FPS (256 SPF)
Compression mode : Lossy
Stream size : 198 MiB (10%)
Language : English
Service kind : Complete Main
Default : Yes
Forced : No

Text
ID : 3
Format : UTF-8
Codec ID : S_TEXT/UTF8
Codec ID/Info : UTF-8 Plain Text
Duration : 43 min 3 s
Bit rate : 84 b/s
Count of elements : 873
Stream size : 26.5 KiB (0%)
Language : English
Default : No
Forced : No





The Good Doctor S01E11


The Good Doctor S01E11


The Good Doctor S01E11


The Good Doctor S01E11


The Good Doctor S01E11

All episodes