Featured TV Shows


The Good Doctor S01E12

Posted By: Tavaz
SD / WEB-DL IMDb
The Good Doctor S01E12

The Good Doctor S01E12
WEB-DL | MOV | 720x400 | English | H264 @ 493 kbps | AAC @ 256 kbps | 43 min 10 s | 233 MiB
Genre: Drama

A young surgeon with Savant syndrome is recruited into the surgical unit of a prestigious hospital. The question will arise: can a person who doesn't have the ability to relate to people actually save their lives?

The.Good.Doctor.S01E12.WEB-DL.x264-ION10.mp4 (233.1 MB)



General
Complete name : ./The.Good.Doctor.S01E12.WEB-DL.x264-ION10.mp4
Format : MPEG-4
Format profile : Base Media
Codec ID : isom (isom/iso2/avc1/mp41)
File size : 233 MiB
Duration : 43 min 10 s
Overall bit rate : 755 kb/s
Movie name : RARBG - The.Good.Doctor.S01E12.WEB-DL.x264-ION10
Encoded date : UTC 2018-01-24 11:54:51
Tagged date : UTC 2018-01-24 11:54:51
Writing application : Lavf57.83.100
Comment : RARBG - The.Good.Doctor.S01E12.WEB-DL.x264-ION10

Video
ID : 1
Format : AVC
Format/Info : Advanced Video Codec
Format profile : High@L3.1
Format settings : CABAC / 5 Ref Frames
Format settings, CABAC : Yes
Format settings, RefFrames : 5 frames
Codec ID : avc1
Codec ID/Info : Advanced Video Coding
Duration : 43 min 10 s
Bit rate : 493 kb/s
Width : 720 pixels
Height : 400 pixels
Display aspect ratio : 16:9
Frame rate mode : Constant
Frame rate : 23.976 (23976/1000) FPS
Color space : YUV
Chroma subsampling : 4:2:0
Bit depth : 8 bits
Scan type : Progressive
Bits/(Pixel*Frame) : 0.071
Stream size : 152 MiB (65%)
Title : RARBG - The.Good.Doctor.S01E12.WEB-DL.x264-ION10
Writing library : x264 core 152 r2851M ba24899
Encoding settings : cabac=1 / ref=5 / deblock=1:-1:-1 / analyse=0x3:0x113 / me=umh / subme=9 / psy=1 / psy_rd=1.00:0.15 / mixed_ref=1 / me_range=16 / chroma_me=1 / trellis=2 / 8x8dct=1 / cqm=0 / deadzone=21,11 / fast_pskip=1 / chroma_qp_offset=-3 / threads=12 / lookahead_threads=1 / sliced_threads=0 / nr=0 / decimate=1 / interlaced=0 / bluray_compat=0 / constrained_intra=0 / bframes=3 / b_pyramid=2 / b_adapt=2 / b_bias=0 / direct=3 / weightb=1 / open_gop=0 / weightp=2 / keyint=250 / keyint_min=23 / scenecut=40 / intra_refresh=0 / rc_lookahead=50 / rc=crf / mbtree=1 / crf=19.0 / qcomp=0.60 / qpmin=0 / qpmax=69 / qpstep=4 / ip_ratio=1.40 / aq=1:1.00
Language : English
Encoded date : UTC 2018-01-24 11:54:51
Tagged date : UTC 2018-01-24 11:54:51

Audio
ID : 2
Format : AAC
Format/Info : Advanced Audio Codec
Format profile : LC
Codec ID : mp4a-40-2
Duration : 43 min 10 s
Duration_LastFrame : -11 ms
Bit rate mode : Constant
Bit rate : 256 kb/s
Channel(s) : 2 channels
Channel positions : Front: L R
Sampling rate : 48.0 kHz
Frame rate : 46.875 FPS (1024 SPF)
Compression mode : Lossy
Stream size : 79.1 MiB (34%)
Title : RARBG - The.Good.Doctor.S01E12.WEB-DL.x264-ION10
Language : English
Default : Yes
Alternate group : 1
Encoded date : UTC 2018-01-24 11:54:51
Tagged date : UTC 2018-01-24 11:54:51





The Good Doctor S01E12


The Good Doctor S01E12


The Good Doctor S01E12


The Good Doctor S01E12


The Good Doctor S01E12

All episodes