Featured TV Shows


The Good Doctor S01E13

Posted By: Tavaz
1080p (FullHD) / WEB-DL IMDb
The Good Doctor S01E13

The Good Doctor S01E13
WEB-DL | MKV | 1920x1080 | English | H264 @ 5003 kbps | E-AC-3 @ 640 kbps | 43 min 1 s | 1.70 GiB
Subtitles: English
Genre: Drama

A young surgeon with Savant syndrome is recruited into the surgical unit of a prestigious hospital. The question will arise: can a person who doesn't have the ability to relate to people actually save their lives?

ff1a25c3f2934b9eb30c31cadb2de9d6.mkv (1.7 GB)



General
Unique ID : 252223874802898567126693065689593891832 (0xBDC08D232037CC95B097CCD123D94BF8)
Complete name : ./ff1a25c3f2934b9eb30c31cadb2de9d6.mkv
Format : Matroska
Format version : Version 4 / Version 2
File size : 1.70 GiB
Duration : 43 min 1 s
Overall bit rate mode : Variable
Overall bit rate : 5 646 kb/s
Encoded date : UTC 2018-01-23 22:07:53
Writing application : mkvmerge v18.0.0 ('Apricity') 64-bit
Writing library : libebml v1.3.5 + libmatroska v1.4.8

Video
ID : 1
Format : AVC
Format/Info : Advanced Video Codec
Format profile : High@L4
Format settings : CABAC / 4 Ref Frames
Format settings, CABAC : Yes
Format settings, RefFrames : 4 frames
Codec ID : V_MPEG4/ISO/AVC
Duration : 43 min 1 s
Bit rate mode : Variable
Bit rate : 5 004 kb/s
Maximum bit rate : 15.0 Mb/s
Width : 1 920 pixels
Height : 1 080 pixels
Display aspect ratio : 16:9
Frame rate mode : Constant
Frame rate : 23.976 (24000/1001) FPS
Color space : YUV
Chroma subsampling : 4:2:0
Bit depth : 8 bits
Scan type : Progressive
Bits/(Pixel*Frame) : 0.101
Stream size : 1.50 GiB (89%)
Default : Yes
Forced : No
Color range : Limited
Color primaries : BT.709
Transfer characteristics : BT.709
Matrix coefficients : BT.709

Audio
ID : 2
Format : E-AC-3
Format/Info : Enhanced Audio Coding 3
Format settings, Endianness : Big
Codec ID : A_EAC3
Duration : 43 min 1 s
Bit rate mode : Constant
Bit rate : 640 kb/s
Channel(s) : 6 channels
Channel positions : Front: L C R, Side: L R, LFE
Sampling rate : 48.0 kHz
Frame rate : 187.500 FPS (256 SPF)
Compression mode : Lossy
Stream size : 197 MiB (11%)
Language : English
Service kind : Complete Main
Default : Yes
Forced : No

Text
ID : 3
Format : UTF-8
Codec ID : S_TEXT/UTF8
Codec ID/Info : UTF-8 Plain Text
Duration : 42 min 49 s
Bit rate : 80 b/s
Count of elements : 918
Stream size : 25.2 KiB (0%)
Language : English
Default : No
Forced : No





The Good Doctor S01E13


The Good Doctor S01E13


The Good Doctor S01E13


The Good Doctor S01E13


The Good Doctor S01E13

All episodes