Featured TV Shows


The Good Doctor S01E15

Posted By: Tavaz
1080p (FullHD) / WEB-DL IMDb
The Good Doctor S01E15

The Good Doctor S01E15
WEB-DL | MKV | 1920x1080 | English | H264 @ 5617 kbps | E-AC-3 @ 640 kbps | 43 min 6 s | 1.88 GiB
Subtitles: English
Genre: Drama

A young surgeon with Savant syndrome is recruited into the surgical unit of a prestigious hospital. The question will arise: can a person who doesn't have the ability to relate to people actually save their lives?

5e61b17d81a84e04be0b0143664b6521.mkv (1.9 GB)



General
Unique ID : 243820906609895364103725597741749104566 (0xB76E32D199F7CD35D72F89D66A83EFB6)
Complete name : ./5e61b17d81a84e04be0b0143664b6521.mkv
Format : Matroska
Format version : Version 4 / Version 2
File size : 1.88 GiB
Duration : 43 min 6 s
Overall bit rate mode : Variable
Overall bit rate : 6 259 kb/s
Encoded date : UTC 2018-02-27 08:25:01
Writing application : mkvmerge v20.0.0 ('I Am The Sun') 64-bit
Writing library : libebml v1.3.5 + libmatroska v1.4.8

Video
ID : 1
Format : AVC
Format/Info : Advanced Video Codec
Format profile : High@L4
Format settings : CABAC / 4 Ref Frames
Format settings, CABAC : Yes
Format settings, RefFrames : 4 frames
Codec ID : V_MPEG4/ISO/AVC
Duration : 43 min 6 s
Bit rate mode : Variable
Bit rate : 5 617 kb/s
Maximum bit rate : 15.0 Mb/s
Width : 1 920 pixels
Height : 1 080 pixels
Display aspect ratio : 16:9
Frame rate mode : Constant
Frame rate : 23.976 (24000/1001) FPS
Color space : YUV
Chroma subsampling : 4:2:0
Bit depth : 8 bits
Scan type : Progressive
Bits/(Pixel*Frame) : 0.113
Stream size : 1.69 GiB (90%)
Default : Yes
Forced : No
Color range : Limited
Color primaries : BT.709
Transfer characteristics : BT.709
Matrix coefficients : BT.709

Audio
ID : 2
Format : E-AC-3
Format/Info : Enhanced Audio Coding 3
Format settings, Endianness : Big
Codec ID : A_EAC3
Duration : 43 min 6 s
Bit rate mode : Constant
Bit rate : 640 kb/s
Channel(s) : 6 channels
Channel positions : Front: L C R, Side: L R, LFE
Sampling rate : 48.0 kHz
Frame rate : 187.500 FPS (256 SPF)
Compression mode : Lossy
Stream size : 197 MiB (10%)
Language : English
Service kind : Complete Main
Default : Yes
Forced : No

Text
ID : 3
Format : UTF-8
Codec ID : S_TEXT/UTF8
Codec ID/Info : UTF-8 Plain Text
Duration : 42 min 20 s
Bit rate : 93 b/s
Count of elements : 933
Stream size : 29.0 KiB (0%)
Title : English
Language : English
Default : No
Forced : No





The Good Doctor S01E15


The Good Doctor S01E15


The Good Doctor S01E15


The Good Doctor S01E15


The Good Doctor S01E15

All episodes