Featured TV Shows


The Good Doctor S01E18

Posted By: Tavaz
1080p (FullHD) / WEB-DL IMDb
The Good Doctor S01E18

The Good Doctor S01E18
WEB-DL | MKV | 1920x1080 | English | H264 @ 5472 kbps | E-AC-3 @ 640 kbps | 43 min 11 s | 1.84 GiB
Genre: Drama

A young surgeon with Savant syndrome is recruited into the surgical unit of a prestigious hospital. The question will arise: can a person who doesn't have the ability to relate to people actually save their lives?

cc207922689e4d348d09961cbd7c38d2.mkv (1.8 GB)



General
Unique ID : 223016291849621861019445458598972941784 (0xA7C7601DE163011A3E29AF533378E5D8)
Complete name : ./cc207922689e4d348d09961cbd7c38d2.mkv
Format : Matroska
Format version : Version 4 / Version 2
File size : 1.84 GiB
Duration : 43 min 11 s
Overall bit rate mode : Variable
Overall bit rate : 6 114 kb/s
Encoded date : UTC 2018-03-27 13:08:29
Writing application : mkvmerge v8.8.0 ('Wind at my back') 64bit
Writing library : libebml v1.3.3 + libmatroska v1.4.4

Video
ID : 1
Format : AVC
Format/Info : Advanced Video Codec
Format profile : High@L4
Format settings : CABAC / 4 Ref Frames
Format settings, CABAC : Yes
Format settings, RefFrames : 4 frames
Codec ID : V_MPEG4/ISO/AVC
Duration : 43 min 11 s
Bit rate mode : Variable
Bit rate : 5 472 kb/s
Maximum bit rate : 15.0 Mb/s
Width : 1 920 pixels
Height : 1 080 pixels
Display aspect ratio : 16:9
Frame rate mode : Constant
Frame rate : 23.976 (24000/1001) FPS
Color space : YUV
Chroma subsampling : 4:2:0
Bit depth : 8 bits
Scan type : Progressive
Bits/(Pixel*Frame) : 0.110
Stream size : 1.65 GiB (90%)
Default : Yes
Forced : No
Color range : Limited
Color primaries : BT.709
Transfer characteristics : BT.709
Matrix coefficients : BT.709

Audio
ID : 2
Format : E-AC-3
Format/Info : Enhanced Audio Coding 3
Format settings, Endianness : Big
Codec ID : A_EAC3
Duration : 43 min 10 s
Bit rate mode : Constant
Bit rate : 640 kb/s
Channel(s) : 6 channels
Channel positions : Front: L C R, Side: L R, LFE
Sampling rate : 48.0 kHz
Frame rate : 187.500 FPS (256 SPF)
Compression mode : Lossy
Stream size : 198 MiB (10%)
Language : English
Service kind : Complete Main
Default : Yes
Forced : No





The Good Doctor S01E18


The Good Doctor S01E18


The Good Doctor S01E18


The Good Doctor S01E18


The Good Doctor S01E18

All episodes