Featured TV Shows


The Good Doctor S02E01

Posted By: Tavaz
1080p (FullHD) / WEB-DL IMDb
The Good Doctor S02E01

The Good Doctor S02E01
WEB-DL | MKV | 1920x1080 | English | H264 @ 9325 kbps | E-AC-3 @ 640 kbps | 43 min 1 s | 3.00 GiB
Subtitles: English
Genre: Drama

A young surgeon with Savant syndrome is recruited into the surgical unit of a prestigious hospital. The question will arise: can a person who doesn't have the ability to relate to people actually save their lives?

c7cf8890d2cf42158da047989934ff4d.mkv (3.0 GB)



General
Unique ID : 108098828065985679198058649683379229342 (0x515313B5C88E743C394A185ADABA129E)
Complete name : ./c7cf8890d2cf42158da047989934ff4d.mkv
Format : Matroska
Format version : Version 4 / Version 2
File size : 3.00 GiB
Duration : 43 min 1 s
Overall bit rate : 9 967 kb/s
Encoded date : UTC 2018-09-25 10:34:30
Writing application : mkvmerge v26.0.0 ('In The Game') 64-bit
Writing library : libebml v1.3.6 + libmatroska v1.4.9

Video
ID : 1
Format : AVC
Format/Info : Advanced Video Codec
Format profile : High@L4
Format settings : CABAC / 4 Ref Frames
Format settings, CABAC : Yes
Format settings, RefFrames : 4 frames
Codec ID : V_MPEG4/ISO/AVC
Duration : 43 min 1 s
Bit rate : 9 325 kb/s
Width : 1 920 pixels
Height : 1 080 pixels
Display aspect ratio : 16:9
Frame rate mode : Constant
Frame rate : 23.976 (24000/1001) FPS
Color space : YUV
Chroma subsampling : 4:2:0
Bit depth : 8 bits
Scan type : Progressive
Bits/(Pixel*Frame) : 0.188
Stream size : 2.80 GiB (94%)
Default : Yes
Forced : No
Color range : Limited
Color primaries : BT.709
Transfer characteristics : BT.709
Matrix coefficients : BT.709

Audio
ID : 2
Format : E-AC-3
Format/Info : Enhanced Audio Coding 3
Format settings, Endianness : Big
Codec ID : A_EAC3
Duration : 43 min 1 s
Bit rate mode : Constant
Bit rate : 640 kb/s
Channel(s) : 6 channels
Channel positions : Front: L C R, Side: L R, LFE
Sampling rate : 48.0 kHz
Frame rate : 187.500 FPS (256 SPF)
Compression mode : Lossy
Stream size : 197 MiB (6%)
Language : English
Service kind : Complete Main
Default : Yes
Forced : No

Text
ID : 3
Format : UTF-8
Codec ID : S_TEXT/UTF8
Codec ID/Info : UTF-8 Plain Text
Duration : 42 min 43 s
Bit rate : 69 b/s
Count of elements : 819
Stream size : 21.8 KiB (0%)
Title : English (SDH)
Language : English
Default : No
Forced : No





The Good Doctor S02E01


The Good Doctor S02E01


The Good Doctor S02E01


The Good Doctor S02E01


The Good Doctor S02E01

All episodes