Featured TV Shows


The Good Doctor S02E03

Posted By: Tavaz
1080p (FullHD) / WEB-DL IMDb
The Good Doctor S02E03

The Good Doctor S02E03
WEB-DL | MKV | 1920x1080 | H264 @ 8390 kbps | E-AC-3 @ 640 kbps | 43 min 4 s | 2.77 GiB
Genre: Drama

A young surgeon with Savant syndrome is recruited into the surgical unit of a prestigious hospital. The question will arise: can a person who doesn't have the ability to relate to people actually save their lives?

61fb4ee4222d4365823dd2736cb23b34.mkv (2.8 GB)



General
Unique ID : 169095589011069463633686412083072017906 (0x7F36A036A88F74418652982343AF25F2)
Complete name : ./61fb4ee4222d4365823dd2736cb23b34.mkv
Format : Matroska
Format version : Version 4 / Version 2
File size : 2.77 GiB
Duration : 43 min 4 s
Overall bit rate : 9 214 kb/s
Writing application : Lavf57.82.100
Writing library : Lavf57.82.100
ErrorDetectionType : Per level 1

Video
ID : 1
Format : AVC
Format/Info : Advanced Video Codec
Format profile : High@L4
Format settings : CABAC / 4 Ref Frames
Format settings, CABAC : Yes
Format settings, RefFrames : 4 frames
Codec ID : V_MPEG4/ISO/AVC
Duration : 43 min 4 s
Bit rate : 8 390 kb/s
Width : 1 920 pixels
Height : 1 080 pixels
Display aspect ratio : 16:9
Frame rate mode : Constant
Frame rate : 23.976 (24000/1001) FPS
Color space : YUV
Chroma subsampling : 4:2:0
Bit depth : 8 bits
Scan type : Progressive
Bits/(Pixel*Frame) : 0.169
Stream size : 2.52 GiB (91%)
Default : Yes
Forced : No
Color range : Limited
Color primaries : BT.709
Transfer characteristics : BT.709
Matrix coefficients : BT.709

Audio
ID : 2
Format : E-AC-3
Format/Info : Enhanced Audio Coding 3
Format settings, Endianness : Big
Codec ID : A_EAC3
Duration : 43 min 4 s
Bit rate mode : Constant
Bit rate : 640 kb/s
Channel(s) : 6 channels
Channel positions : Front: L C R, Side: L R, LFE
Sampling rate : 48.0 kHz
Frame rate : 187.500 FPS (256 SPF)
Bit depth : 32 bits
Compression mode : Lossy
Stream size : 197 MiB (7%)
Service kind : Complete Main
Default : Yes
Forced : No

Text
ID : 3
Format : ASS
Codec ID : S_TEXT/ASS
Codec ID/Info : Advanced Sub Station Alpha
Duration : 42 min 27 s
Compression mode : Lossless
Writing library : Lavc57.106.101 ssa
Default : No
Forced : No





The Good Doctor S02E03


The Good Doctor S02E03


The Good Doctor S02E03


The Good Doctor S02E03


The Good Doctor S02E03

All episodes