Featured TV Shows


The Good Doctor S02E05

Posted By: Tavaz
1080p (FullHD) / WEBRip IMDb
The Good Doctor S02E05

The Good Doctor S02E05
WEBRip | MKV | 1920x1080 | null | H264 @ 5497 kbps | E-AC-3 @ 640 kbps | 43 min 3 s | 1.88 GiB
Subtitles: English
Genre: Drama

A young surgeon with Savant syndrome is recruited into the surgical unit of a prestigious hospital. The question will arise: can a person who doesn't have the ability to relate to people actually save their lives?

25ceb5ad0a5849b2a3c891a1e4a1a7bc.mkv (1.9 GB)



General
Unique ID : 146549373728147194502573665683736163414 (0x6E4061F9E66F609C1245F9ABC944F456)
Complete name : ./25ceb5ad0a5849b2a3c891a1e4a1a7bc.mkv
Format : Matroska
Format version : Version 4 / Version 2
File size : 1.88 GiB
Duration : 43 min 3 s
Overall bit rate : 6 262 kb/s
Movie name : The Good Doctor S02E05
Writing application : Lavf57.72.101
Writing library : Lavf57.72.101
ErrorDetectionType : Per level 1

Video
ID : 1
Format : AVC
Format/Info : Advanced Video Codec
Format profile : High@L4
Format settings : CABAC / 4 Ref Frames
Format settings, CABAC : Yes
Format settings, RefFrames : 4 frames
Codec ID : V_MPEG4/ISO/AVC
Duration : 43 min 3 s
Bit rate : 5 498 kb/s
Width : 1 920 pixels
Height : 1 080 pixels
Display aspect ratio : 16:9
Frame rate mode : Constant
Frame rate : 23.976 (24000/1001) FPS
Color space : YUV
Chroma subsampling : 4:2:0
Bit depth : 8 bits
Scan type : Progressive
Bits/(Pixel*Frame) : 0.111
Stream size : 1.65 GiB (88%)
Default : Yes
Forced : No
Color range : Limited
Color primaries : BT.709
Transfer characteristics : BT.709
Matrix coefficients : BT.709

Audio
ID : 2
Format : E-AC-3
Format/Info : Enhanced Audio Coding 3
Format settings, Endianness : Big
Codec ID : A_EAC3
Duration : 43 min 3 s
Bit rate mode : Constant
Bit rate : 640 kb/s
Channel(s) : 6 channels
Channel positions : Front: L C R, Side: L R, LFE
Sampling rate : 48.0 kHz
Frame rate : 187.500 FPS (256 SPF)
Bit depth : 32 bits
Compression mode : Lossy
Stream size : 197 MiB (10%)
Title : English
Language : null
Service kind : Complete Main
Default : Yes
Forced : No

Text
ID : 3
Format : UTF-8
Codec ID : S_TEXT/UTF8
Codec ID/Info : UTF-8 Plain Text
Title : English [CC]
Language : English
Default : No
Forced : No





The Good Doctor S02E05


The Good Doctor S02E05


The Good Doctor S02E05


The Good Doctor S02E05


The Good Doctor S02E05

All episodes