Featured TV Shows


The Good Doctor S02E06

Posted By: Tavaz
720p (HD) / WEBRip IMDb
The Good Doctor S02E06

The Good Doctor S02E06
WEBRip | MKV | 1280x720 | English | H264 @ 1579 kbps | E-AC-3 @ 640 kbps | 43 min 0 s | 683 MiB
Subtitles: English
Genre: Drama

A young surgeon with Savant syndrome is recruited into the surgical unit of a prestigious hospital. The question will arise: can a person who doesn't have the ability to relate to people actually save their lives?

6948112f279a48f49d2b89e03e76cadf.mkv (683.4 MB)



General
Unique ID : 324315383064199088670493067307675904735 (0xF3FCDEEA93F6050992BB434522196ADF)
Complete name : ./6948112f279a48f49d2b89e03e76cadf.mkv
Format : Matroska
Format version : Version 4 / Version 2
File size : 683 MiB
Duration : 43 min 0 s
Overall bit rate : 2 221 kb/s
Encoded date : UTC 2018-11-06 08:07:47
Writing application : mkvmerge v26.0.0 ('In The Game') 64-bit
Writing library : libebml v1.3.6 + libmatroska v1.4.9

Video
ID : 1
Format : AVC
Format/Info : Advanced Video Codec
Format profile : High@L3.1
Format settings : CABAC / 5 Ref Frames
Format settings, CABAC : Yes
Format settings, RefFrames : 5 frames
Codec ID : V_MPEG4/ISO/AVC
Duration : 43 min 0 s
Bit rate : 1 580 kb/s
Width : 1 280 pixels
Height : 720 pixels
Display aspect ratio : 16:9
Frame rate mode : Constant
Frame rate : 23.976 (24000/1001) FPS
Color space : YUV
Chroma subsampling : 4:2:0
Bit depth : 8 bits
Scan type : Progressive
Bits/(Pixel*Frame) : 0.071
Stream size : 486 MiB (71%)
Default : Yes
Forced : No
Color range : Limited
Color primaries : BT.709
Transfer characteristics : BT.709
Matrix coefficients : BT.709

Audio
ID : 2
Format : E-AC-3
Format/Info : Enhanced Audio Coding 3
Format settings, Endianness : Big
Codec ID : A_EAC3
Duration : 43 min 0 s
Bit rate mode : Constant
Bit rate : 640 kb/s
Channel(s) : 6 channels
Channel positions : Front: L C R, Side: L R, LFE
Sampling rate : 48.0 kHz
Frame rate : 187.500 FPS (256 SPF)
Compression mode : Lossy
Stream size : 197 MiB (29%)
Language : English
Service kind : Complete Main
Default : Yes
Forced : No

Text
ID : 3
Format : UTF-8
Codec ID : S_TEXT/UTF8
Codec ID/Info : UTF-8 Plain Text
Duration : 42 min 39 s
Bit rate : 77 b/s
Count of elements : 846
Stream size : 24.3 KiB (0%)
Title : English SDH
Language : English
Default : No
Forced : No





The Good Doctor S02E06


The Good Doctor S02E06


The Good Doctor S02E06


The Good Doctor S02E06


The Good Doctor S02E06

All episodes