Featured TV Shows


The Good Doctor S02E06

Posted By: Tavaz
1080p (FullHD) / WEBRip IMDb
The Good Doctor S02E06

The Good Doctor S02E06
WEBRip | MKV | 1920x1080 | English | H264 @ 6724 kbps | E-AC-3 @ 640 kbps | 43 min 0 s | 2.21 GiB
Subtitles: English
Genre: Drama

A young surgeon with Savant syndrome is recruited into the surgical unit of a prestigious hospital. The question will arise: can a person who doesn't have the ability to relate to people actually save their lives?

3b74eba13ff840eea6b13705bb6d3bd3.mkv (2.2 GB)



General
Unique ID : 165945094233583602276561392850632354993 (0x7CD7DCD410C195AF33796EA70C72ACB1)
Complete name : ./3b74eba13ff840eea6b13705bb6d3bd3.mkv
Format : Matroska
Format version : Version 4 / Version 2
File size : 2.21 GiB
Duration : 43 min 0 s
Overall bit rate : 7 367 kb/s
Encoded date : UTC 2018-11-06 08:09:14
Writing application : mkvmerge v26.0.0 ('In The Game') 64-bit
Writing library : libebml v1.3.6 + libmatroska v1.4.9

Video
ID : 1
Format : AVC
Format/Info : Advanced Video Codec
Format profile : High@L4
Format settings : CABAC / 4 Ref Frames
Format settings, CABAC : Yes
Format settings, RefFrames : 4 frames
Codec ID : V_MPEG4/ISO/AVC
Duration : 43 min 0 s
Bit rate : 6 725 kb/s
Width : 1 920 pixels
Height : 1 080 pixels
Display aspect ratio : 16:9
Frame rate mode : Constant
Frame rate : 23.976 (24000/1001) FPS
Color space : YUV
Chroma subsampling : 4:2:0
Bit depth : 8 bits
Scan type : Progressive
Bits/(Pixel*Frame) : 0.135
Stream size : 2.02 GiB (91%)
Default : Yes
Forced : No
Color range : Limited
Color primaries : BT.709
Transfer characteristics : BT.709
Matrix coefficients : BT.709

Audio
ID : 2
Format : E-AC-3
Format/Info : Enhanced Audio Coding 3
Format settings, Endianness : Big
Codec ID : A_EAC3
Duration : 43 min 0 s
Bit rate mode : Constant
Bit rate : 640 kb/s
Channel(s) : 6 channels
Channel positions : Front: L C R, Side: L R, LFE
Sampling rate : 48.0 kHz
Frame rate : 187.500 FPS (256 SPF)
Compression mode : Lossy
Stream size : 197 MiB (9%)
Language : English
Service kind : Complete Main
Default : Yes
Forced : No

Text
ID : 3
Format : UTF-8
Codec ID : S_TEXT/UTF8
Codec ID/Info : UTF-8 Plain Text
Duration : 42 min 39 s
Bit rate : 77 b/s
Count of elements : 846
Stream size : 24.3 KiB (0%)
Title : English SDH
Language : English
Default : No
Forced : No





The Good Doctor S02E06


The Good Doctor S02E06


The Good Doctor S02E06


The Good Doctor S02E06


The Good Doctor S02E06

All episodes