Featured TV Shows


The Good Doctor S02E06

Posted By: Tavaz
1080p (FullHD) / HDTV IMDb
The Good Doctor S02E06

The Good Doctor S02E06
HDTV | MKV | 1920x1080 | French / English | H264 @ 6335 kbps | MPEG Audio @ 384 kbps | 41 min 14 s | 2.05 GiB
Subtitles: French
Genre: Drama


A young surgeon with Savant syndrome is recruited into the surgical unit of a prestigious hospital. The question will arise: can a person who doesn't have the ability to relate to people actually save their lives?

3dfc8151764a402ea5c3d74b6f07a02f.mkv (2.0 GB)



General
Unique ID : 279610659437978558169308742893598283122 (0xD25B0DDE9E771CD67955C7FB3F9E1572)
Complete name : ./3dfc8151764a402ea5c3d74b6f07a02f.mkv
Format : Matroska
Format version : Version 4 / Version 2
File size : 2.05 GiB
Duration : 41 min 14 s
Overall bit rate : 7 106 kb/s
Encoded date : UTC 2019-09-19 05:10:11
Writing application : mkvmerge v37.0.0 ('Leave It') 64-bit
Writing library : libebml v1.3.9 + libmatroska v1.5.2

Video
ID : 1
Format : AVC
Format/Info : Advanced Video Codec
Format profile : High@L4
Format settings : CABAC / 4 Ref Frames
Format settings, CABAC : Yes
Format settings, RefFrames : 4 frames
Codec ID : V_MPEG4/ISO/AVC
Duration : 41 min 14 s
Bit rate : 6 335 kb/s
Width : 1 920 pixels
Height : 1 080 pixels
Display aspect ratio : 16:9
Frame rate mode : Constant
Frame rate : 25.000 FPS
Standard : Component
Color space : YUV
Chroma subsampling : 4:2:0
Bit depth : 8 bits
Scan type : MBAFF
Bits/(Pixel*Frame) : 0.122
Stream size : 1.83 GiB (89%)
Default : Yes
Forced : No
Color range : Limited
Color primaries : BT.709
Transfer characteristics : BT.709
Matrix coefficients : BT.709

Audio #1
ID : 2
Format : MPEG Audio
Format version : Version 1
Format profile : Layer 2
Codec ID : A_MPEG/L2
Codec ID/Hint : MP2
Duration : 41 min 14 s
Bit rate mode : Constant
Bit rate : 384 kb/s
Channel(s) : 2 channels
Sampling rate : 48.0 kHz
Frame rate : 41.667 FPS (1152 SPF)
Compression mode : Lossy
Stream size : 113 MiB (5%)
Title : French
Language : French
Default : Yes
Forced : No

Audio #2
ID : 3
Format : MPEG Audio
Format version : Version 1
Format profile : Layer 2
Codec ID : A_MPEG/L2
Codec ID/Hint : MP2
Duration : 41 min 14 s
Bit rate mode : Constant
Bit rate : 384 kb/s
Channel(s) : 2 channels
Sampling rate : 48.0 kHz
Frame rate : 41.667 FPS (1152 SPF)
Compression mode : Lossy
Stream size : 113 MiB (5%)
Title : English
Language : English
Default : No
Forced : No

Text #1
ID : 4
Format : UTF-8
Codec ID : S_TEXT/UTF8
Codec ID/Info : UTF-8 Plain Text
Duration : 40 min 35 s
Bit rate : 72 b/s
Count of elements : 686
Stream size : 21.5 KiB (0%)
Title : French
Language : French
Default : No
Forced : No

Text #2
ID : 5
Format : UTF-8
Codec ID : S_TEXT/UTF8
Codec ID/Info : UTF-8 Plain Text
Duration : 41 min 1 s
Bit rate : 72 b/s
Count of elements : 716
Stream size : 21.7 KiB (0%)
Title : French (SDH)
Language : French
Default : No
Forced : No





The Good Doctor S02E06


The Good Doctor S02E06


The Good Doctor S02E06


The Good Doctor S02E06


The Good Doctor S02E06

All episodes