Featured TV Shows


The Good Doctor S02E06

Posted By: Tavaz
720p (HD) / WEBRip IMDb
The Good Doctor S02E06

The Good Doctor S02E06
WEBRip | MKV | 1280x720 | null | H264 @ 1538 kbps | E-AC-3 @ 640 kbps | 43 min 0 s | 684 MiB
Subtitles: English
Genre: Drama

A young surgeon with Savant syndrome is recruited into the surgical unit of a prestigious hospital. The question will arise: can a person who doesn't have the ability to relate to people actually save their lives?

8d51b6e62a4c4e7fb5f67fd61e66a6a0.mkv (683.8 MB)



General
Unique ID : 281059629907283751761756006230767081289 (0xD3721DA11DAA3B0D0B52CA16337E9749)
Complete name : ./8d51b6e62a4c4e7fb5f67fd61e66a6a0.mkv
Format : Matroska
Format version : Version 4 / Version 2
File size : 684 MiB
Duration : 43 min 0 s
Overall bit rate : 2 223 kb/s
Movie name : The Good Doctor S02E06
Writing application : Lavf57.72.101
Writing library : Lavf57.72.101
ErrorDetectionType : Per level 1

Video
ID : 1
Format : AVC
Format/Info : Advanced Video Codec
Format profile : High@L3.1
Format settings : CABAC / 5 Ref Frames
Format settings, CABAC : Yes
Format settings, RefFrames : 5 frames
Codec ID : V_MPEG4/ISO/AVC
Duration : 43 min 0 s
Bit rate : 1 539 kb/s
Width : 1 280 pixels
Height : 720 pixels
Display aspect ratio : 16:9
Frame rate mode : Constant
Frame rate : 23.976 (24000/1001) FPS
Color space : YUV
Chroma subsampling : 4:2:0
Bit depth : 8 bits
Scan type : Progressive
Bits/(Pixel*Frame) : 0.070
Stream size : 473 MiB (69%)
Writing library : AVC Coding
Default : Yes
Forced : No
Color range : Limited
Color primaries : BT.709
Transfer characteristics : BT.709
Matrix coefficients : BT.709

Audio
ID : 2
Format : E-AC-3
Format/Info : Enhanced Audio Coding 3
Format settings, Endianness : Big
Codec ID : A_EAC3
Duration : 43 min 0 s
Bit rate mode : Constant
Bit rate : 640 kb/s
Channel(s) : 6 channels
Channel positions : Front: L C R, Side: L R, LFE
Sampling rate : 48.0 kHz
Frame rate : 187.500 FPS (256 SPF)
Bit depth : 32 bits
Compression mode : Lossy
Stream size : 197 MiB (29%)
Title : English
Language : null
Service kind : Complete Main
Default : Yes
Forced : No

Text
ID : 3
Format : UTF-8
Codec ID : S_TEXT/UTF8
Codec ID/Info : UTF-8 Plain Text
Duration : 42 min 44 s
Title : English [CC]
Language : English
Default : No
Forced : No





The Good Doctor S02E06


The Good Doctor S02E06


The Good Doctor S02E06


The Good Doctor S02E06


The Good Doctor S02E06

All episodes