Featured TV Shows


The Good Doctor S02E08

Posted By: Tavaz
1080p (FullHD) / WEBRip IMDb
The Good Doctor S02E08

The Good Doctor S02E08
WEBRip | MKV | 1920x1080 | English | H264 @ 5992 kbps | E-AC-3 @ 640 kbps | 42 min 33 s | 1.97 GiB
Subtitles: English
Genre: Drama

A young surgeon with Savant syndrome is recruited into the surgical unit of a prestigious hospital. The question will arise: can a person who doesn't have the ability to relate to people actually save their lives?

0dff98f93e3148a6ab0160c196ee441f.mkv (2.0 GB)



General
Unique ID : 197760967580403172104177431880933188234 (0x94C7607E721D57DB3F16D83271FA228A)
Complete name : ./0dff98f93e3148a6ab0160c196ee441f.mkv
Format : Matroska
Format version : Version 4 / Version 2
File size : 1.97 GiB
Duration : 42 min 33 s
Overall bit rate : 6 635 kb/s
Encoded date : UTC 2018-11-20 08:04:01
Writing application : mkvmerge v28.2.0 ('The Awakening') 64-bit
Writing library : libebml v1.3.6 + libmatroska v1.4.9

Video
ID : 1
Format : AVC
Format/Info : Advanced Video Codec
Format profile : High@L4
Format settings : CABAC / 4 Ref Frames
Format settings, CABAC : Yes
Format settings, RefFrames : 4 frames
Codec ID : V_MPEG4/ISO/AVC
Duration : 42 min 33 s
Bit rate : 5 993 kb/s
Width : 1 920 pixels
Height : 1 080 pixels
Display aspect ratio : 16:9
Frame rate mode : Constant
Frame rate : 23.976 (24000/1001) FPS
Color space : YUV
Chroma subsampling : 4:2:0
Bit depth : 8 bits
Scan type : Progressive
Bits/(Pixel*Frame) : 0.121
Stream size : 1.78 GiB (90%)
Language : English
Default : Yes
Forced : No
Color range : Limited
Color primaries : BT.709
Transfer characteristics : BT.709
Matrix coefficients : BT.709

Audio
ID : 2
Format : E-AC-3
Format/Info : Enhanced Audio Coding 3
Format settings, Endianness : Big
Codec ID : A_EAC3
Duration : 42 min 33 s
Bit rate mode : Constant
Bit rate : 640 kb/s
Channel(s) : 6 channels
Channel positions : Front: L C R, Side: L R, LFE
Sampling rate : 48.0 kHz
Frame rate : 187.500 FPS (256 SPF)
Compression mode : Lossy
Stream size : 195 MiB (10%)
Service kind : Complete Main
Default : Yes
Forced : No

Text
ID : 3
Format : UTF-8
Codec ID : S_TEXT/UTF8
Codec ID/Info : UTF-8 Plain Text
Duration : 41 min 54 s
Bit rate : 72 b/s
Count of elements : 734
Stream size : 22.1 KiB (0%)
Title : English
Language : English
Default : No
Forced : No





The Good Doctor S02E08


The Good Doctor S02E08


The Good Doctor S02E08


The Good Doctor S02E08


The Good Doctor S02E08

All episodes