Featured TV Shows


Good Doctor S02E11

Posted By: Tavaz
720p (HD) / HDTV IMDb
Good Doctor S02E11

Good Doctor S02E11
HDTV | MKV | 1280x720 | English | H264 @ 2798 kbps | AC-3 @ 448 kbps | 40 min 54 s | 950 MiB
Genre: Drame


Atteint du syndrome d'Asperger, le chirurgien Shaun Murphy rejoint un prestigieux hôpital de Boston. Isolé, il éprouve des difficultés à s'intégrer à l'équipe. Mais en mettant son incroyable don au service de ses patients, ce jeune prodige suscite l'admiration de ses collègues, même les plus sceptiques.

The.Good.Doctor.S02E12.FRENCH.720p.HDTV.x264-SH0W.mkv (950.4 MB)
The.Good.Doctor.S02E11.FRENCH.720p.HDTV.x264-SH0W.mkv (894.4 MB)



General
Unique ID : 89317027248223348354932877518237289313 (0x4331D56F7788DA657204FA37DE434B61)
Complete name : ./The.Good.Doctor.S02E12.FRENCH.720p.HDTV.x264-SH0W/The.Good.Doctor.S02E12.FRENCH.720p.HDTV.x264-SH0W.mkv
Format : Matroska
Format version : Version 4 / Version 2
File size : 950 MiB
Duration : 40 min 54 s
Overall bit rate : 3 248 kb/s
Encoded date : UTC 2019-06-16 22:41:15
Writing application : mkvmerge v34.0.0 ('Sight and Seen') 64-bit
Writing library : libebml v1.3.7 + libmatroska v1.5.0

Video
ID : 1
Format : AVC
Format/Info : Advanced Video Codec
Format profile : High@L4.1
Format settings : CABAC / 5 Ref Frames
Format settings, CABAC : Yes
Format settings, RefFrames : 5 frames
Codec ID : V_MPEG4/ISO/AVC
Duration : 40 min 54 s
Bit rate : 2 798 kb/s
Width : 1 280 pixels
Height : 720 pixels
Display aspect ratio : 16:9
Frame rate mode : Constant
Frame rate : 25.000 FPS
Color space : YUV
Chroma subsampling : 4:2:0
Bit depth : 8 bits
Scan type : Progressive
Bits/(Pixel*Frame) : 0.121
Stream size : 819 MiB (86%)
Writing library : x264 core 157 r2969 d4099dd
Encoding settings : cabac=1 / ref=5 / deblock=1:0:0 / analyse=0x3:0x133 / me=umh / subme=9 / psy=1 / psy_rd=1.00:0.00 / mixed_ref=1 / me_range=16 / chroma_me=1 / trellis=2 / 8x8dct=1 / cqm=0 / deadzone=21,11 / fast_pskip=0 / chroma_qp_offset=-2 / threads=48 / lookahead_threads=4 / sliced_threads=0 / nr=0 / decimate=1 / interlaced=0 / bluray_compat=0 / constrained_intra=0 / bframes=3 / b_pyramid=2 / b_adapt=1 / b_bias=0 / direct=3 / weightb=1 / open_gop=0 / weightp=2 / keyint=250 / keyint_min=25 / scenecut=40 / intra_refresh=0 / rc_lookahead=50 / rc=crf / mbtree=1 / crf=18.0 / qcomp=0.60 / qpmin=0 / qpmax=69 / qpstep=4 / ip_ratio=1.40 / aq=1:1.00
Default : Yes
Forced : No
Color range : Limited
Matrix coefficients : BT.709

Audio
ID : 2
Format : AC-3
Format/Info : Audio Coding 3
Format settings, Endianness : Big
Codec ID : A_AC3
Duration : 40 min 54 s
Bit rate mode : Constant
Bit rate : 448 kb/s
Channel(s) : 6 channels
Channel positions : Front: L C R, Side: L R, LFE
Sampling rate : 48.0 kHz
Frame rate : 31.250 FPS (1536 SPF)
Bit depth : 16 bits
Compression mode : Lossy
Stream size : 131 MiB (14%)
Service kind : Complete Main
Default : Yes
Forced : No





Good Doctor S02E11


Good Doctor S02E11


Good Doctor S02E11


Good Doctor S02E11


Good Doctor S02E11

All episodes