Featured TV Shows


The Good Doctor S02E11

Posted By: Tavaz
The Good Doctor S02E11

The Good Doctor S02E11

A young surgeon with Savant syndrome is recruited into the surgical unit of a prestigious hospital. The question will arise: can a person who doesn't have the ability to relate to people actually save their lives?

a73e346080984b10924fb3ba6c4d6747.avi (387.6 MB)



General
Complete name : ./a73e346080984b10924fb3ba6c4d6747.avi
Format : AVI
Format/Info : Audio Video Interleave
File size : 388 MiB
Duration : 43 min 0 s
Overall bit rate : 1 260 kb/s
Writing application : Lavf57.81.100

Video
ID : 0
Format : xvid
Codec ID : xvid
Duration : 43 min 0 s
Bit rate : 1 119 kb/s
Width : 640 pixels
Height : 360 pixels
Display aspect ratio : 16:9
Frame rate : 23.976 (24000/1001) FPS
Scan type : Progressive
Bits/(Pixel*Frame) : 0.203
Stream size : 344 MiB (89%)

Audio
ID : 1
Format : MPEG Audio
Format version : Version 1
Format profile : Layer 3
Format settings : Joint stereo / MS Stereo
Mode : Joint stereo
Mode extension : MS Stereo
Codec ID : 55
Codec ID/Hint : MP3
Duration : 43 min 0 s
Bit rate mode : Constant
Bit rate : 128 kb/s
Channel(s) : 2 channels
Sampling rate : 48.0 kHz
Compression mode : Lossy
Stream size : 39.4 MiB (10%)
Alignment : Aligned on interleaves
Interleave, duration : 24 ms (0.58 video frame)
Interleave, preload duration : 24 ms
Writing library : LAME3.99.





The Good Doctor S02E11


The Good Doctor S02E11


The Good Doctor S02E11


The Good Doctor S02E11


The Good Doctor S02E11

All episodes