Featured TV Shows


The Good Doctor S02E13

Posted By: Tavaz
The Good Doctor S02E13

The Good Doctor S02E13

A young surgeon with Savant syndrome is recruited into the surgical unit of a prestigious hospital. The question will arise: can a person who doesn't have the ability to relate to people actually save their lives?

066efbc197894cb6b15bb21cce06c6b3.avi (303.8 MB)



General
Complete name : ./066efbc197894cb6b15bb21cce06c6b3.avi
Format : AVI
Format/Info : Audio Video Interleave
File size : 304 MiB
Duration : 42 min 23 s
Overall bit rate : 1 002 kb/s
Writing application : Lavf57.81.100

Video
ID : 0
Format : xvid
Codec ID : xvid
Duration : 42 min 23 s
Bit rate : 861 kb/s
Width : 640 pixels
Height : 360 pixels
Display aspect ratio : 16:9
Frame rate : 23.976 (24000/1001) FPS
Scan type : Progressive
Bits/(Pixel*Frame) : 0.156
Stream size : 261 MiB (86%)

Audio
ID : 1
Format : MPEG Audio
Format version : Version 1
Format profile : Layer 3
Format settings : Joint stereo / MS Stereo
Mode : Joint stereo
Mode extension : MS Stereo
Codec ID : 55
Codec ID/Hint : MP3
Duration : 42 min 23 s
Bit rate mode : Constant
Bit rate : 128 kb/s
Channel(s) : 2 channels
Sampling rate : 48.0 kHz
Compression mode : Lossy
Stream size : 38.8 MiB (13%)
Alignment : Aligned on interleaves
Interleave, duration : 24 ms (0.58 video frame)
Interleave, preload duration : 24 ms





The Good Doctor S02E13


The Good Doctor S02E13


The Good Doctor S02E13


The Good Doctor S02E13


The Good Doctor S02E13

All episodes