Featured TV Shows


The Good Doctor S02E14

Posted By: Tavaz
The Good Doctor S02E14

The Good Doctor S02E14

A young surgeon with Savant syndrome is recruited into the surgical unit of a prestigious hospital. The question will arise: can a person who doesn't have the ability to relate to people actually save their lives?

2e289a9d31a24b94b2a9c106d2f92ce7.avi (337.0 MB)



General
Complete name : ./2e289a9d31a24b94b2a9c106d2f92ce7.avi
Format : AVI
Format/Info : Audio Video Interleave
File size : 337 MiB
Duration : 42 min 21 s
Overall bit rate : 1 112 kb/s
Writing application : Lavf57.81.100

Video
ID : 0
Format : xvid
Codec ID : xvid
Duration : 42 min 21 s
Bit rate : 971 kb/s
Width : 640 pixels
Height : 360 pixels
Display aspect ratio : 16:9
Frame rate : 23.976 (24000/1001) FPS
Scan type : Progressive
Bits/(Pixel*Frame) : 0.176
Stream size : 294 MiB (87%)

Audio
ID : 1
Format : MPEG Audio
Format version : Version 1
Format profile : Layer 3
Format settings : Joint stereo
Mode : Joint stereo
Codec ID : 55
Codec ID/Hint : MP3
Duration : 42 min 21 s
Bit rate mode : Constant
Bit rate : 128 kb/s
Channel(s) : 2 channels
Sampling rate : 48.0 kHz
Compression mode : Lossy
Stream size : 38.8 MiB (12%)
Alignment : Aligned on interleaves
Interleave, duration : 24 ms (0.58 video frame)
Interleave, preload duration : 24 ms





The Good Doctor S02E14


The Good Doctor S02E14


The Good Doctor S02E14


The Good Doctor S02E14


The Good Doctor S02E14

All episodes