Featured TV Shows


The Good Doctor S02E16

Posted By: Tavaz
The Good Doctor S02E16

The Good Doctor S02E16
MOV | 640x358 | H264 @ 307 kbps | AAC @ 129 kbps | 42 min 18 s | 134 MiB
Genre: Drama

A young surgeon with Savant syndrome is recruited into the surgical unit of a prestigious hospital. The question will arise: can a person who doesn't have the ability to relate to people actually save their lives?

075f758c83f4464f96dcd7a972761962.mp4 (133.8 MB)



General
Complete name : ./075f758c83f4464f96dcd7a972761962.mp4
Format : MPEG-4
Format profile : Base Media
Codec ID : isom (isom/iso2/avc1/mp41)
File size : 134 MiB
Duration : 42 min 18 s
Overall bit rate : 442 kb/s
Writing application : Lavf57.81.100

Video
ID : 1
Format : AVC
Format/Info : Advanced Video Codec
Format profile : High@L3
Format settings : CABAC / 4 Ref Frames
Format settings, CABAC : Yes
Format settings, RefFrames : 4 frames
Codec ID : avc1
Codec ID/Info : Advanced Video Coding
Duration : 42 min 18 s
Bit rate : 308 kb/s
Width : 640 pixels
Height : 358 pixels
Display aspect ratio : 16:9
Frame rate mode : Constant
Frame rate : 23.976 (24000/1001) FPS
Color space : YUV
Chroma subsampling : 4:2:0
Bit depth : 8 bits
Scan type : Progressive
Bits/(Pixel*Frame) : 0.056
Stream size : 93.1 MiB (70%)
Writing library : x264 core 152 r2851 ba24899
Encoding settings : cabac=1 / ref=1 / deblock=1:0:0 / analyse=0x3:0x113 / me=hex / subme=2 / psy=1 / psy_rd=1.00:0.00 / mixed_ref=0 / me_range=16 / chroma_me=1 / trellis=0 / 8x8dct=1 / cqm=0 / deadzone=21,11 / fast_pskip=1 / chroma_qp_offset=0 / threads=11 / lookahead_threads=2 / sliced_threads=0 / nr=0 / decimate=1 / interlaced=0 / bluray_compat=0 / constrained_intra=0 / bframes=3 / b_pyramid=2 / b_adapt=1 / b_bias=0 / direct=1 / weightb=1 / open_gop=0 / weightp=1 / keyint=250 / keyint_min=23 / scenecut=40 / intra_refresh=0 / rc_lookahead=10 / rc=crf / mbtree=1 / crf=21.0 / qcomp=0.60 / qpmin=0 / qpmax=69 / qpstep=4 / ip_ratio=1.40 / aq=1:1.00

Audio
ID : 2
Format : AAC
Format/Info : Advanced Audio Codec
Format profile : LC
Codec ID : mp4a-40-2
Duration : 42 min 18 s
Duration_LastFrame : -11 ms
Bit rate mode : Constant
Bit rate : 129 kb/s
Channel(s) : 2 channels
Channel positions : Front: L R
Sampling rate : 48.0 kHz
Frame rate : 46.875 FPS (1024 SPF)
Compression mode : Lossy
Stream size : 39.0 MiB (29%)
Default : Yes
Alternate group : 1





The Good Doctor S02E16


The Good Doctor S02E16


The Good Doctor S02E16


The Good Doctor S02E16


The Good Doctor S02E16

All episodes