Featured TV Shows


The Good Doctor S02E17

Posted By: Tavaz
1080p (FullHD) / WEBRip IMDb
The Good Doctor S02E17

The Good Doctor S02E17
WEBRip | MKV | 1920x1080 | English | H264 @ 7618 kbps | E-AC-3 @ 640 kbps | 42 min 20 s | 2.44 GiB
Subtitles: English
Genre: Drama

A young surgeon with Savant syndrome is recruited into the surgical unit of a prestigious hospital. The question will arise: can a person who doesn't have the ability to relate to people actually save their lives?

d68a18292d9543778acbf0b6b659c7a1.mkv (2.4 GB)



General
Unique ID : 230373526788514532365148435166085176024 (0xAD5053CE19FCC804E17E8C3072C2DAD8)
Complete name : ./d68a18292d9543778acbf0b6b659c7a1.mkv
Format : Matroska
Format version : Version 4 / Version 2
File size : 2.44 GiB
Duration : 42 min 20 s
Overall bit rate : 8 261 kb/s
Encoded date : UTC 2019-03-05 08:00:59
Writing application : mkvmerge v30.1.0 ('Forever And More') 64-bit
Writing library : libebml v1.3.6 + libmatroska v1.4.9

Video
ID : 1
Format : AVC
Format/Info : Advanced Video Codec
Format profile : High@L4
Format settings : CABAC / 4 Ref Frames
Format settings, CABAC : Yes
Format settings, RefFrames : 4 frames
Codec ID : V_MPEG4/ISO/AVC
Duration : 42 min 20 s
Bit rate mode : Constant
Bit rate : 7 618 kb/s
Nominal bit rate : 10 000 kb/s
Width : 1 920 pixels
Height : 1 080 pixels
Display aspect ratio : 16:9
Frame rate mode : Constant
Frame rate : 23.976 (24000/1001) FPS
Color space : YUV
Chroma subsampling : 4:2:0
Bit depth : 8 bits
Scan type : Progressive
Bits/(Pixel*Frame) : 0.153
Stream size : 2.25 GiB (92%)
Language : English
Default : Yes
Forced : No
Color range : Limited
Color primaries : BT.709
Transfer characteristics : BT.709
Matrix coefficients : BT.709

Audio
ID : 2
Format : E-AC-3
Format/Info : Enhanced Audio Coding 3
Format settings, Endianness : Big
Codec ID : A_EAC3
Duration : 42 min 20 s
Bit rate mode : Constant
Bit rate : 640 kb/s
Channel(s) : 6 channels
Channel positions : Front: L C R, Side: L R, LFE
Sampling rate : 48.0 kHz
Frame rate : 187.500 FPS (256 SPF)
Compression mode : Lossy
Stream size : 194 MiB (8%)
Language : English
Service kind : Complete Main
Default : Yes
Forced : No

Text
ID : 3
Format : UTF-8
Codec ID : S_TEXT/UTF8
Codec ID/Info : UTF-8 Plain Text
Duration : 41 min 42 s
Bit rate : 84 b/s
Count of elements : 809
Stream size : 25.8 KiB (0%)
Title : English
Language : English
Default : No
Forced : No





The Good Doctor S02E17


The Good Doctor S02E17


The Good Doctor S02E17


The Good Doctor S02E17


The Good Doctor S02E17

All episodes