Featured TV Shows


The Good Doctor S02E18

Posted By: Tavaz
1080p (FullHD) / WEBRip IMDb
The Good Doctor S02E18

The Good Doctor S02E18
WEBRip | MKV | 1920x1080 | English | H264 @ 9999 kbps | E-AC-3 @ 256 kbps | 43 min 20 s | 3.06 GiB
Subtitles: English
Genre: Drama

A young surgeon with Savant syndrome is recruited into the surgical unit of a prestigious hospital. The question will arise: can a person who doesn't have the ability to relate to people actually save their lives?

The.Good.Doctor.S02E18.1080p.WEB.H264-AMCON.mkv (3.1 GB)



General
Unique ID : 169592268837899249574364244118952681470 (0x7F96486B6C573F87FE7641E9708B1FFE)
Complete name : ./The.Good.Doctor.S02E18.1080p.WEB.H264-AMCON.mkv
Format : Matroska
Format version : Version 4 / Version 2
File size : 3.06 GiB
Duration : 43 min 20 s
Overall bit rate : 10.1 Mb/s
Encoded date : UTC 2019-03-12 07:01:03
Writing application : mkvmerge v30.1.0 ('Forever And More') 64-bit
Writing library : libebml v1.3.6 + libmatroska v1.4.9

Video
ID : 1
Format : AVC
Format/Info : Advanced Video Codec
Format profile : High@L4
Format settings : CABAC / 4 Ref Frames
Format settings, CABAC : Yes
Format settings, RefFrames : 4 frames
Codec ID : V_MPEG4/ISO/AVC
Duration : 43 min 20 s
Bit rate mode : Constant
Bit rate : 10 000 kb/s
Width : 1 920 pixels
Height : 1 080 pixels
Display aspect ratio : 16:9
Frame rate mode : Constant
Frame rate : 23.976 (24000/1001) FPS
Color space : YUV
Chroma subsampling : 4:2:0
Bit depth : 8 bits
Scan type : Progressive
Bits/(Pixel*Frame) : 0.201
Stream size : 2.99 GiB (97%)
Language : English
Default : Yes
Forced : No
Color range : Limited
Color primaries : BT.709
Transfer characteristics : BT.709
Matrix coefficients : BT.709

Audio
ID : 2
Format : E-AC-3
Format/Info : Enhanced Audio Coding 3
Format settings, Endianness : Big
Codec ID : A_EAC3
Duration : 43 min 20 s
Bit rate mode : Constant
Bit rate : 256 kb/s
Channel(s) : 6 channels
Channel positions : Front: L C R, Side: L R, LFE
Sampling rate : 48.0 kHz
Frame rate : 187.500 FPS (256 SPF)
Compression mode : Lossy
Stream size : 79.3 MiB (3%)
Language : English
Service kind : Complete Main
Default : Yes
Forced : No

Text
ID : 3
Format : UTF-8
Codec ID : S_TEXT/UTF8
Codec ID/Info : UTF-8 Plain Text
Duration : 42 min 42 s
Bit rate : 61 b/s
Count of elements : 695
Stream size : 19.1 KiB (0%)
Title : English
Language : English
Default : No
Forced : No





The Good Doctor S02E18


The Good Doctor S02E18


The Good Doctor S02E18


The Good Doctor S02E18


The Good Doctor S02E18

All episodes