Index
# A B C D E F G H I J K L M N O P Q R S T U V W Y Z
Tags
Language
Tags

Featured TV Shows


The Good Fight S02E07

Posted By: Tavaz
SD / WEBRip IMDb
The Good Fight S02E07

The Good Fight S02E07
WEB-DL | MKV | 720x480 | English | H264 @ 624 kbps | E-AC-3 @ 640 kbps | 55 min 30 s | 503 MiB
Subtitles: English
Genre: Drama

Picking up one year after the events of the final broadcast episode of "The Good Wife", an enormous financial scam has destroyed the reputation of a young lawyer, Maia Rindell, while simultaneously wiping out her mentor and godmother Diane Lockhart's savings. Forced out of her law firm, now called "Lockhart, Deckler, Gussman, Lee, Lyman, Gilbert, Lurie, Kagan, Tannebaum & Associates", they join Lucca Quinn at one of Chicago's preeminent law firms.

The.Good.Fight.S02E01.Day.408.480p.AMZN.WEB-DL.DDP5.1.H264-SiGMA.mkv (448.8 MB)
The.Good.Fight.S02E10.Day.471.480p.AMZN.WEB-DL.DDP5.1.H264-SiGMA.mkv (472.6 MB)
The.Good.Fight.S02E13.Day.492.480p.AMZN.WEB-DL.DDP5.1.H264-SiGMA.mkv (502.7 MB)
The.Good.Fight.S02E04.Day.429.480p.AMZN.WEB-DL.DDP5.1.H264-SiGMA.mkv (438.5 MB)
The.Good.Fight.S02E07.Day.450.480p.AMZN.WEB-DL.DDP5.1.H264-SiGMA.mkv (462.1 MB)
The.Good.Fight.S02E09.Day.464.480p.AMZN.WEB-DL.DDP5.1.H264-SiGMA.mkv (424.2 MB)
The.Good.Fight.S02E05.Day.436.480p.AMZN.WEB-DL.DDP5.1.H264-SiGMA.mkv (462.0 MB)
The.Good.Fight.S02E08.Day.457.480p.AMZN.WEB-DL.DDP5.1.H264-SiGMA.mkv (431.3 MB)
The.Good.Fight.S02E03.Day.422.480p.AMZN.WEB-DL.DDP5.1.H264-SiGMA.mkv (452.7 MB)
The.Good.Fight.S02E06.Day.443.480p.AMZN.WEB-DL.DDP5.1.H264-SiGMA.mkv (415.3 MB)
The.Good.Fight.S02E11.Day.478.480p.AMZN.WEB-DL.DDP5.1.H264-SiGMA.mkv (466.8 MB)
The.Good.Fight.S02E02.Day.415.480p.AMZN.WEB-DL.DDP5.1.H264-SiGMA.mkv (410.4 MB)
The.Good.Fight.S02E12.Day.485.480p.AMZN.WEB-DL.DDP5.1.H264-SiGMA.mkv (380.3 MB)



General
Unique ID : 154020726160309105008053323657399762187 (0x73DF501762CA9EA20C9C70F8D92FFD0B)
Complete name : ./The.Good.Fight.S02E13.Day.492.480p.AMZN.WEB-DL.DDP5.1.H264-SiGMA.mkv
Format : Matroska
Format version : Version 4 / Version 2
File size : 503 MiB
Duration : 55 min 30 s
Overall bit rate : 1 266 kb/s
Encoded date : UTC 2018-11-05 12:49:43
Writing application : mkvmerge v28.2.0 ('The Awakening') 64-bit
Writing library : libebml v1.3.6 + libmatroska v1.4.9

Video
ID : 1
Format : AVC
Format/Info : Advanced Video Codec
Format profile : Main@L3
Format settings : CABAC / 5 Ref Frames
Format settings, CABAC : Yes
Format settings, RefFrames : 5 frames
Codec ID : V_MPEG4/ISO/AVC
Duration : 55 min 29 s
Bit rate : 624 kb/s
Width : 720 pixels
Height : 480 pixels
Display aspect ratio : 16:9
Frame rate mode : Constant
Frame rate : 24.000 FPS
Color space : YUV
Chroma subsampling : 4:2:0
Bit depth : 8 bits
Scan type : Progressive
Bits/(Pixel*Frame) : 0.075
Stream size : 248 MiB (49%)
Default : Yes
Forced : No
Color range : Limited
Color primaries : BT.709
Transfer characteristics : BT.709
Matrix coefficients : BT.709

Audio
ID : 2
Format : E-AC-3
Format/Info : Enhanced Audio Coding 3
Format settings, Endianness : Big
Codec ID : A_EAC3
Duration : 55 min 29 s
Bit rate mode : Constant
Bit rate : 640 kb/s
Channel(s) : 6 channels
Channel positions : Front: L C R, Side: L R, LFE
Sampling rate : 48.0 kHz
Frame rate : 187.500 FPS (256 SPF)
Compression mode : Lossy
Stream size : 254 MiB (51%)
Language : English
Service kind : Complete Main
Default : Yes
Forced : No

Text
ID : 3
Format : UTF-8
Codec ID : S_TEXT/UTF8
Codec ID/Info : UTF-8 Plain Text
Duration : 54 min 35 s
Bit rate : 88 b/s
Count of elements : 1160
Stream size : 35.3 KiB (0%)
Title : English (SDH)
Language : English
Default : No
Forced : No





The Good Fight S02E07


The Good Fight S02E07


The Good Fight S02E07


The Good Fight S02E07


The Good Fight S02E07

All episodes