Featured TV Shows


The Good Place S02E05

Posted By: Tavaz
SD / WEB-DL IMDb
The Good Place S02E05

The Good Place S02E05
WEB-DL | MKV | 720x404 | Italian | H264 @ 1024 kbps | AAC @ 111 kbps | 20 min 42 s | 175 MiB
Subtitles: Italian
Genre: Commedia

Dopo essere stata investita da un camion che trasportava prodotti per la disfunzione erettile, Eleanor (Kristen Bell) si sveglia nell’Aldilà (il Good Place). Ma quando Michael (Ted Danson) le dice che è nel “bel posto” in quanto ha scagionato persone innocenti dal braccio della morte, si rende conto che c’è stato un errore in quanto loro credono che sia un’altra persona. Imprigionata in un mondo dove nessuno impreca, non ci si può ubriacare e tutti sono sempre gentili, Eleanor deve affrontare una scelta: rimanere nell’Aldilà o cercare di trovare un modo per ritornare alla vita mondana che svolgeva sulla Terra.

The.Good.Place.2x05.Crisi.Esistenziale.ITA.DLMux.x264-NovaRip.mkv (175.0 MB)



General
Unique ID : 340038659409011542184276106347062382119 (0xFFD1104ABE9883D450790D937A824E27)
Complete name : ./The.Good.Place.2x05.Crisi.Esistenziale.ITA.DLMux.x264-NovaRip.mkv
Format : Matroska
Format version : Version 2
File size : 175 MiB
Duration : 20 min 42 s
Overall bit rate : 1 182 kb/s
Encoded date : UTC 2018-05-22 12:24:25
Writing application : mkvmerge v8.5.2 ('Crosses') 64bit
Writing library : libebml v1.3.3 + libmatroska v1.4.4

Video
ID : 1
Format : AVC
Format/Info : Advanced Video Codec
Format profile : High@L3.1
Format settings : CABAC / 6 Ref Frames
Format settings, CABAC : Yes
Format settings, RefFrames : 6 frames
Codec ID : V_MPEG4/ISO/AVC
Duration : 20 min 42 s
Bit rate : 1 024 kb/s
Width : 720 pixels
Height : 404 pixels
Display aspect ratio : 16:9
Frame rate mode : Constant
Frame rate : 25.000 FPS
Original frame rate : 23.976 (24000/1001) FPS
Color space : YUV
Chroma subsampling : 4:2:0
Bit depth : 8 bits
Scan type : Progressive
Bits/(Pixel*Frame) : 0.141
Stream size : 158 MiB (90%)
Writing library : x264 core 155 r2893 b00bcaf
Encoding settings : cabac=1 / ref=6 / deblock=1:-2:-2 / analyse=0x3:0x133 / me=umh / subme=7 / psy=1 / psy_rd=1.00:0.00 / mixed_ref=1 / me_range=16 / chroma_me=1 / trellis=2 / 8x8dct=1 / cqm=0 / deadzone=21,11 / fast_pskip=0 / chroma_qp_offset=-2 / threads=6 / lookahead_threads=1 / sliced_threads=0 / nr=0 / decimate=1 / interlaced=0 / bluray_compat=0 / constrained_intra=0 / bframes=5 / b_pyramid=2 / b_adapt=2 / b_bias=0 / direct=3 / weightb=1 / open_gop=0 / weightp=2 / keyint=250 / keyint_min=23 / scenecut=40 / intra_refresh=0 / rc_lookahead=40 / rc=2pass / mbtree=1 / bitrate=1024 / ratetol=1.0 / qcomp=0.60 / qpmin=0 / qpmax=69 / qpstep=4 / cplxblur=20.0 / qblur=0.5 / ip_ratio=1.40 / aq=1:1.00
Language : English
Default : Yes
Forced : Yes

Audio
ID : 2
Format : AAC
Format/Info : Advanced Audio Codec
Format profile : LC
Codec ID : A_AAC-2
Duration : 20 min 41 s
Bit rate : 112 kb/s
Channel(s) : 2 channels
Channel positions : Front: L R
Sampling rate : 48.0 kHz
Frame rate : 46.875 FPS (1024 SPF)
Compression mode : Lossy
Delay relative to video : 9 ms
Stream size : 16.6 MiB (9%)
Title : ITA
Language : Italian
Default : Yes
Forced : Yes

Text
ID : 3
Format : UTF-8
Codec ID : S_TEXT/UTF8
Codec ID/Info : UTF-8 Plain Text
Duration : 7 min 50 s
Bit rate : 0 b/s
Count of elements : 2
Stream size : 31.0 Bytes (0%)
Title : ITA - Forced
Language : Italian
Default : Yes
Forced : Yes





The Good Place S02E05


The Good Place S02E05


The Good Place S02E05


The Good Place S02E05


The Good Place S02E05

All episodes