Featured TV Shows


The Good Place S02E02

Posted By: Tavaz
1080p (FullHD) / WEB-DL IMDb
The Good Place S02E02

The Good Place S02E02
WEB-DL | MKV | 1920x1080 | English | H264 @ 4096 kbps | AAC @ 96 kbps | 24 min 19 s | 718 MiB
Genre: Comedy

Eleanor Shellstrop, an ordinary woman who, through an extraordinary string of events, enters the afterlife where she comes to realize that she hasn't been a very good person. With the help of her wise afterlife mentor, she's determined to shed her old way of living and discover the awesome (or at least the pretty good) person within.

71cf83545cf642a4950aacae3aed8ca7.mkv (718.0 MB)



General
Unique ID : 183774789667927967267867351330566995038 (0x8A41BCAEF2A87A34B256CE09CC947C5E)
Complete name : ./71cf83545cf642a4950aacae3aed8ca7.mkv
Format : Matroska
Format version : Version 4 / Version 2
File size : 718 MiB
Duration : 24 min 19 s
Overall bit rate : 4 126 kb/s
Encoded date : UTC 2017-12-09 08:38:51
Writing application : mkvmerge v17.0.0 ('Be Ur Friend') 64-bit
Writing library : libebml v1.3.5 + libmatroska v1.4.8

Video
ID : 1
Format : AVC
Format/Info : Advanced Video Codec
Format profile : Main@L4
Format settings : CABAC / 1 Ref Frames
Format settings, CABAC : Yes
Format settings, RefFrames : 1 frame
Format settings, GOP : M=1, N=48
Codec ID : V_MPEG4/ISO/AVC
Duration : 24 min 19 s
Bit rate : 4 096 kb/s
Width : 1 920 pixels
Height : 1 080 pixels
Display aspect ratio : 16:9
Frame rate mode : Variable
Frame rate : 23.976 FPS
Color space : YUV
Chroma subsampling : 4:2:0
Bit depth : 8 bits
Scan type : Progressive
Bits/(Pixel*Frame) : 0.082
Stream size : 701 MiB (98%)
Writing library : x264 core 120
Encoding settings : cabac=1 / ref=1 / deblock=1:0:0 / analyse=0x1:0x111 / me=hex / subme=6 / psy=1 / psy_rd=1.00:0.00 / mixed_ref=0 / me_range=16 / chroma_me=0 / trellis=1 / 8x8dct=0 / cqm=0 / deadzone=21,11 / fast_pskip=1 / chroma_qp_offset=-2 / threads=8 / sliced_threads=0 / nr=0 / decimate=1 / interlaced=0 / bluray_compat=0 / constrained_intra=0 / bframes=0 / weightp=2 / keyint=48 / keyint_min=25 / scenecut=0 / intra_refresh=0 / rc=abr / mbtree=0 / bitrate=4096 / ratetol=1.0 / qcomp=0.60 / qpmin=10 / qpmax=51 / qpstep=4 / ip_ratio=1.40 / aq=1:1.00
Default : Yes
Forced : No

Audio
ID : 2
Format : AAC
Format/Info : Advanced Audio Codec
Format profile : LC
Codec ID : A_AAC-2
Duration : 24 min 19 s
Bit rate : 96.0 kb/s
Channel(s) : 2 channels
Channel positions : Front: L R
Sampling rate : 44.1 kHz
Frame rate : 43.066 FPS (1024 SPF)
Compression mode : Lossy
Stream size : 16.7 MiB (2%)
Default : Yes
Forced : No

Text
ID : 3
Format : UTF-8
Codec ID : S_TEXT/UTF8
Codec ID/Info : UTF-8 Plain Text
Duration : 23 min 24 s
Bit rate : 109 b/s
Count of elements : 943
Stream size : 18.9 KiB (0%)
Default : No
Forced : No

Menu
00:00:00.000 : en:Dance Dance Resolution - Extended Cut
00:08:48.000 : en:Dance Dance Resolution - Extended Cut
00:15:53.000 : en:Dance Dance Resolution - Extended Cut





The Good Place S02E02


The Good Place S02E02


The Good Place S02E02


The Good Place S02E02


The Good Place S02E02

All episodes