Featured TV Shows


The Good Place S02E02

Posted By: Tavaz
720p (HD) / WEB-DL IMDb
The Good Place S02E02

The Good Place S02E02
WEB-DL | MKV | 1280x720 | English | H264 @ 2560 kbps | AAC @ 96 kbps | 24 min 19 s | 457 MiB
Genre: Comedy

Eleanor Shellstrop, an ordinary woman who, through an extraordinary string of events, enters the afterlife where she comes to realize that she hasn't been a very good person. With the help of her wise afterlife mentor, she's determined to shed her old way of living and discover the awesome (or at least the pretty good) person within.

1447f5d1b2a542fab0ad31c02df421bd.mkv (456.8 MB)



General
Unique ID : 239356836865230942080162960581448203894 (0xB41273300168D8DEA63BF0221F9C7E76)
Complete name : ./1447f5d1b2a542fab0ad31c02df421bd.mkv
Format : Matroska
Format version : Version 4 / Version 2
File size : 457 MiB
Duration : 24 min 19 s
Overall bit rate : 2 625 kb/s
Encoded date : UTC 2017-12-09 08:39:56
Writing application : mkvmerge v17.0.0 ('Be Ur Friend') 64-bit
Writing library : libebml v1.3.5 + libmatroska v1.4.8

Video
ID : 1
Format : AVC
Format/Info : Advanced Video Codec
Format profile : Main@L3.1
Format settings : CABAC / 1 Ref Frames
Format settings, CABAC : Yes
Format settings, RefFrames : 1 frame
Format settings, GOP : M=1, N=48
Codec ID : V_MPEG4/ISO/AVC
Duration : 24 min 19 s
Bit rate : 2 560 kb/s
Width : 1 280 pixels
Height : 720 pixels
Display aspect ratio : 16:9
Frame rate mode : Variable
Frame rate : 23.976 FPS
Color space : YUV
Chroma subsampling : 4:2:0
Bit depth : 8 bits
Scan type : Progressive
Bits/(Pixel*Frame) : 0.116
Stream size : 440 MiB (96%)
Writing library : x264 core 120
Encoding settings : cabac=1 / ref=1 / deblock=1:0:0 / analyse=0x1:0x111 / me=hex / subme=6 / psy=1 / psy_rd=1.00:0.00 / mixed_ref=0 / me_range=16 / chroma_me=0 / trellis=1 / 8x8dct=0 / cqm=0 / deadzone=21,11 / fast_pskip=1 / chroma_qp_offset=-2 / threads=8 / sliced_threads=0 / nr=0 / decimate=1 / interlaced=0 / bluray_compat=0 / constrained_intra=0 / bframes=0 / weightp=2 / keyint=48 / keyint_min=25 / scenecut=0 / intra_refresh=0 / rc=abr / mbtree=0 / bitrate=2560 / ratetol=1.0 / qcomp=0.60 / qpmin=10 / qpmax=51 / qpstep=4 / ip_ratio=1.40 / aq=1:1.00
Default : Yes
Forced : No

Audio
ID : 2
Format : AAC
Format/Info : Advanced Audio Codec
Format profile : LC
Codec ID : A_AAC-2
Duration : 24 min 19 s
Bit rate : 96.0 kb/s
Channel(s) : 2 channels
Channel positions : Front: L R
Sampling rate : 44.1 kHz
Frame rate : 43.066 FPS (1024 SPF)
Compression mode : Lossy
Stream size : 16.7 MiB (4%)
Default : Yes
Forced : No

Text
ID : 3
Format : UTF-8
Codec ID : S_TEXT/UTF8
Codec ID/Info : UTF-8 Plain Text
Duration : 23 min 24 s
Bit rate : 109 b/s
Count of elements : 943
Stream size : 18.9 KiB (0%)
Default : No
Forced : No

Menu
00:00:00.000 : en:Dance Dance Resolution - Extended Cut
00:08:48.000 : en:Dance Dance Resolution - Extended Cut
00:15:53.000 : en:Dance Dance Resolution - Extended Cut





The Good Place S02E02


The Good Place S02E02


The Good Place S02E02


The Good Place S02E02


The Good Place S02E02

All episodes