Featured TV Shows


The Good Place S02E04

Posted By: Tavaz
720p (HD) / WEB-DL IMDb
The Good Place S02E04

The Good Place S02E04
WEB-DL | MKV | 1280x720 | English | H264 @ 4087 kbps | AC-3 @ 384 kbps | 21 min 35 s | 691 MiB
Genre: Commedia

Dopo essere stata investita da un camion che trasportava prodotti per la disfunzione erettile, Eleanor (Kristen Bell) si sveglia nell’Aldilà (il Good Place). Ma quando Michael (Ted Danson) le dice che è nel “bel posto” in quanto ha scagionato persone innocenti dal braccio della morte, si rende conto che c’è stato un errore in quanto loro credono che sia un’altra persona. Imprigionata in un mondo dove nessuno impreca, non ci si può ubriacare e tutti sono sempre gentili, Eleanor deve affrontare una scelta: rimanere nell’Aldilà o cercare di trovare un modo per ritornare alla vita mondana che svolgeva sulla Terra.

2315b919c834455a9dff7b70d77a542b.mkv (690.7 MB)



General
Unique ID : 211069933927027723946592399823348917441 (0x9ECA97324825DEEEB79A3E6DCC1F64C1)
Complete name : ./2315b919c834455a9dff7b70d77a542b.mkv
Format : Matroska
Format version : Version 4 / Version 2
File size : 691 MiB
Duration : 21 min 35 s
Overall bit rate : 4 474 kb/s
Encoded date : UTC 2017-10-13 13:51:09
Writing application : mkvmerge v16.0.0 ('Protest') 64-bit
Writing library : libebml v1.3.5 + libmatroska v1.4.8

Video
ID : 1
Format : AVC
Format/Info : Advanced Video Codec
Format profile : High@L3.1
Format settings : 2 Ref Frames
Format settings, CABAC : No
Format settings, RefFrames : 2 frames
Codec ID : V_MPEG4/ISO/AVC
Duration : 21 min 35 s
Bit rate : 4 088 kb/s
Width : 1 280 pixels
Height : 720 pixels
Display aspect ratio : 16:9
Frame rate mode : Constant
Frame rate : 23.976 (24000/1001) FPS
Color space : YUV
Chroma subsampling : 4:2:0
Bit depth : 8 bits
Scan type : Progressive
Bits/(Pixel*Frame) : 0.185
Stream size : 631 MiB (91%)
Language : English
Default : Yes
Forced : No
Color range : Limited
Color primaries : BT.709
Transfer characteristics : BT.709
Matrix coefficients : BT.709

Audio
ID : 2
Format : AC-3
Format/Info : Audio Coding 3
Format settings, Endianness : Big
Codec ID : A_AC3
Duration : 21 min 35 s
Bit rate mode : Constant
Bit rate : 384 kb/s
Channel(s) : 6 channels
Channel positions : Front: L C R, Side: L R, LFE
Sampling rate : 48.0 kHz
Frame rate : 31.250 FPS (1536 SPF)
Bit depth : 16 bits
Compression mode : Lossy
Stream size : 59.3 MiB (9%)
Language : English
Service kind : Complete Main
Default : Yes
Forced : No

Text
ID : 3
Format : UTF-8
Codec ID : S_TEXT/UTF8
Codec ID/Info : UTF-8 Plain Text
Duration : 21 min 26 s
Bit rate : 157 b/s
Count of elements : 618
Stream size : 24.8 KiB (0%)
Default : Yes
Forced : No





The Good Place S02E04


The Good Place S02E04


The Good Place S02E04


The Good Place S02E04


The Good Place S02E04

All episodes