Featured TV Shows


The Good Place S02E05

Posted By: Tavaz
1080p (FullHD) / WEB-DL IMDb
The Good Place S02E05

The Good Place S02E05
WEB-DL | MKV | 1920x1080 | English | H264 @ 5213 kbps | AC-3 @ 384 kbps | 21 min 35 s | 864 MiB
Genre: Commedia

Dopo essere stata investita da un camion che trasportava prodotti per la disfunzione erettile, Eleanor (Kristen Bell) si sveglia nell’Aldilà (il Good Place). Ma quando Michael (Ted Danson) le dice che è nel “bel posto” in quanto ha scagionato persone innocenti dal braccio della morte, si rende conto che c’è stato un errore in quanto loro credono che sia un’altra persona. Imprigionata in un mondo dove nessuno impreca, non ci si può ubriacare e tutti sono sempre gentili, Eleanor deve affrontare una scelta: rimanere nell’Aldilà o cercare di trovare un modo per ritornare alla vita mondana che svolgeva sulla Terra.

5086ef6560604ff38a457e5f32cf57cd.mkv (864.4 MB)



General
Unique ID : 185179090461460257032343441762471567390 (0x8B50320EDEF3383B8855D8239C46E01E)
Complete name : ./5086ef6560604ff38a457e5f32cf57cd.mkv
Format : Matroska
Format version : Version 4 / Version 2
File size : 864 MiB
Duration : 21 min 35 s
Overall bit rate : 5 599 kb/s
Encoded date : UTC 2017-10-20 10:02:36
Writing application : mkvmerge v16.0.0 ('Protest') 64-bit
Writing library : libebml v1.3.5 + libmatroska v1.4.8

Video
ID : 1
Format : AVC
Format/Info : Advanced Video Codec
Format profile : High@L4
Format settings : CABAC / 4 Ref Frames
Format settings, CABAC : Yes
Format settings, RefFrames : 4 frames
Codec ID : V_MPEG4/ISO/AVC
Duration : 21 min 34 s
Bit rate : 5 213 kb/s
Width : 1 920 pixels
Height : 1 080 pixels
Display aspect ratio : 16:9
Frame rate mode : Constant
Frame rate : 23.976 (24000/1001) FPS
Color space : YUV
Chroma subsampling : 4:2:0
Bit depth : 8 bits
Scan type : Progressive
Bits/(Pixel*Frame) : 0.105
Stream size : 805 MiB (93%)
Language : English
Default : Yes
Forced : No
Color range : Limited
Color primaries : BT.709
Transfer characteristics : BT.709
Matrix coefficients : BT.709

Audio
ID : 2
Format : AC-3
Format/Info : Audio Coding 3
Format settings, Endianness : Big
Codec ID : A_AC3
Duration : 21 min 35 s
Bit rate mode : Constant
Bit rate : 384 kb/s
Channel(s) : 6 channels
Channel positions : Front: L C R, Side: L R, LFE
Sampling rate : 48.0 kHz
Frame rate : 31.250 FPS (1536 SPF)
Bit depth : 16 bits
Compression mode : Lossy
Delay relative to video : -42 ms
Stream size : 59.3 MiB (7%)
Language : English
Service kind : Complete Main
Default : Yes
Forced : No

Text
ID : 3
Format : UTF-8
Codec ID : S_TEXT/UTF8
Codec ID/Info : UTF-8 Plain Text
Duration : 21 min 26 s
Bit rate : 155 b/s
Count of elements : 552
Stream size : 24.4 KiB (0%)
Default : Yes
Forced : No





The Good Place S02E05


The Good Place S02E05


The Good Place S02E05


The Good Place S02E05


The Good Place S02E05

All episodes