Featured TV Shows


The Good Place S02E08

Posted By: Tavaz
SD / WEB-DL IMDb
The Good Place S02E08

The Good Place S02E08
WEB-DL | MOV | 720x400 | English | H264 @ 967 kbps | AAC @ 128 kbps | 22 min 4 s | 174 MiB
Genre: Comedy

Eleanor Shellstrop, an ordinary woman who, through an extraordinary string of events, enters the afterlife where she comes to realize that she hasn't been a very good person. With the help of her wise afterlife mentor, she's determined to shed her old way of living and discover the awesome (or at least the pretty good) person within.

The.Good.Place.S02E08.WEB-DL.x264-ION10.mp4 (174.0 MB)



General
Complete name : ./The.Good.Place.S02E08.WEB-DL.x264-ION10.mp4
Format : MPEG-4
Format profile : Base Media
Codec ID : isom (isom/iso2/avc1/mp41)
File size : 174 MiB
Duration : 22 min 4 s
Overall bit rate : 1 101 kb/s
Movie name : RARBG - The.Good.Place.S02E08.WEB-DL.x264-ION10
Encoded date : UTC 2018-01-20 23:49:39
Tagged date : UTC 2018-01-20 23:49:39
Writing application : Lavf57.83.100
Comment : RARBG - The.Good.Place.S02E08.WEB-DL.x264-ION10

Video
ID : 1
Format : AVC
Format/Info : Advanced Video Codec
Format profile : High@L3.1
Format settings : CABAC / 5 Ref Frames
Format settings, CABAC : Yes
Format settings, RefFrames : 5 frames
Codec ID : avc1
Codec ID/Info : Advanced Video Coding
Duration : 22 min 4 s
Bit rate : 968 kb/s
Width : 720 pixels
Height : 400 pixels
Display aspect ratio : 16:9
Frame rate mode : Constant
Frame rate : 23.976 (24000/1001) FPS
Color space : YUV
Chroma subsampling : 4:2:0
Bit depth : 8 bits
Scan type : Progressive
Bits/(Pixel*Frame) : 0.140
Stream size : 153 MiB (88%)
Title : RARBG - The.Good.Place.S02E08.WEB-DL.x264-ION10
Writing library : x264 core 152 r2851M ba24899
Encoding settings : cabac=1 / ref=5 / deblock=1:-1:-1 / analyse=0x3:0x113 / me=umh / subme=9 / psy=1 / psy_rd=1.00:0.15 / mixed_ref=1 / me_range=16 / chroma_me=1 / trellis=2 / 8x8dct=1 / cqm=0 / deadzone=21,11 / fast_pskip=1 / chroma_qp_offset=-3 / threads=12 / lookahead_threads=1 / sliced_threads=0 / nr=0 / decimate=1 / interlaced=0 / bluray_compat=0 / constrained_intra=0 / bframes=3 / b_pyramid=2 / b_adapt=2 / b_bias=0 / direct=3 / weightb=1 / open_gop=0 / weightp=2 / keyint=250 / keyint_min=23 / scenecut=40 / intra_refresh=0 / rc_lookahead=50 / rc=crf / mbtree=1 / crf=19.0 / qcomp=0.60 / qpmin=0 / qpmax=69 / qpstep=4 / ip_ratio=1.40 / aq=1:1.00
Language : English
Encoded date : UTC 2018-01-20 23:49:39
Tagged date : UTC 2018-01-20 23:49:39

Audio
ID : 2
Format : AAC
Format/Info : Advanced Audio Codec
Format profile : LC
Codec ID : mp4a-40-2
Duration : 22 min 4 s
Duration_LastFrame : -11 ms
Bit rate mode : Constant
Bit rate : 128 kb/s
Channel(s) : 2 channels
Channel positions : Front: L R
Sampling rate : 48.0 kHz
Frame rate : 46.875 FPS (1024 SPF)
Compression mode : Lossy
Stream size : 20.2 MiB (12%)
Title : RARBG - The.Good.Place.S02E08.WEB-DL.x264-ION10
Language : English
Default : Yes
Alternate group : 1
Encoded date : UTC 2018-01-20 23:49:39
Tagged date : UTC 2018-01-20 23:49:39





The Good Place S02E08


The Good Place S02E08


The Good Place S02E08


The Good Place S02E08


The Good Place S02E08

All episodes