Featured TV Shows


The Good Place S02E08

Posted By: Tavaz
1080p (FullHD) / WEB-DL IMDb
The Good Place S02E08

The Good Place S02E08
WEB-DL | MKV | 1920x1080 | English | H264 @ 5181 kbps | AC-3 @ 384 kbps | 22 min 4 s | 879 MiB
Genre: Comedy

Eleanor Shellstrop, an ordinary woman who, through an extraordinary string of events, enters the afterlife where she comes to realize that she hasn't been a very good person. With the help of her wise afterlife mentor, she's determined to shed her old way of living and discover the awesome (or at least the pretty good) person within.

0f6539b716eb4f8ab3c3bfe7e7bf7b42.mkv (879.3 MB)



General
Unique ID : 129591107027770038538544172754582913529 (0x617E56DFF9EFCA427F1AB863034441F9)
Complete name : ./0f6539b716eb4f8ab3c3bfe7e7bf7b42.mkv
Format : Matroska
Format version : Version 4 / Version 2
File size : 879 MiB
Duration : 22 min 4 s
Overall bit rate : 5 568 kb/s
Encoded date : UTC 2018-01-19 12:09:41
Writing application : mkvmerge v20.0.0 ('I Am The Sun') 64-bit
Writing library : libebml v1.3.5 + libmatroska v1.4.8

Video
ID : 1
Format : AVC
Format/Info : Advanced Video Codec
Format profile : High@L4
Format settings : CABAC / 4 Ref Frames
Format settings, CABAC : Yes
Format settings, RefFrames : 4 frames
Codec ID : V_MPEG4/ISO/AVC
Duration : 22 min 4 s
Bit rate : 5 182 kb/s
Width : 1 920 pixels
Height : 1 080 pixels
Display aspect ratio : 16:9
Frame rate mode : Constant
Frame rate : 23.976 (24000/1001) FPS
Color space : YUV
Chroma subsampling : 4:2:0
Bit depth : 8 bits
Scan type : Progressive
Bits/(Pixel*Frame) : 0.104
Stream size : 818 MiB (93%)
Language : English
Default : Yes
Forced : No
Color range : Limited
Color primaries : BT.709
Transfer characteristics : BT.709
Matrix coefficients : BT.709

Audio
ID : 2
Format : AC-3
Format/Info : Audio Coding 3
Format settings, Endianness : Big
Codec ID : A_AC3
Duration : 22 min 4 s
Bit rate mode : Constant
Bit rate : 384 kb/s
Channel(s) : 6 channels
Channel positions : Front: L C R, Side: L R, LFE
Sampling rate : 48.0 kHz
Frame rate : 31.250 FPS (1536 SPF)
Bit depth : 16 bits
Compression mode : Lossy
Delay relative to video : -42 ms
Stream size : 60.6 MiB (7%)
Language : English
Service kind : Complete Main
Default : Yes
Forced : No

Text
ID : 3
Format : UTF-8
Codec ID : S_TEXT/UTF8
Codec ID/Info : UTF-8 Plain Text
Duration : 21 min 56 s
Bit rate : 164 b/s
Count of elements : 594
Stream size : 26.4 KiB (0%)
Default : Yes
Forced : No





The Good Place S02E08


The Good Place S02E08


The Good Place S02E08


The Good Place S02E08


The Good Place S02E08

All episodes