Featured TV Shows


The Good Place S03E02

Posted By: Tavaz
1080p (FullHD) / WEB-DL IMDb
The Good Place S03E02

The Good Place S03E02
WEB-DL | MKV | 1920x1080 | English | H264 @ 4020 kbps | E-AC-3 @ 640 kbps | 22 min 19 s | 730 MiB
Subtitles: Swedish, Portuguese, Dutch, Finnish, Danish, Czech, Spanish, French, Norwegian, Turkish, English, Polish, Italian
Genre: Comedy

Eleanor Shellstrop, an ordinary woman who, through an extraordinary string of events, enters the afterlife where she comes to realize that she hasn't been a very good person. With the help of her wise afterlife mentor, she's determined to shed her old way of living and discover the awesome (or at least the pretty good) person within.

13a560d4965c4168be9886626966a71b.mkv (730.0 MB)



General
Unique ID : 154841889087122339653994462251041775884 (0x747D768CA991D4003939635199D5610C)
Complete name : ./13a560d4965c4168be9886626966a71b.mkv
Format : Matroska
Format version : Version 4 / Version 2
File size : 730 MiB
Duration : 22 min 19 s
Overall bit rate mode : Variable
Overall bit rate : 4 571 kb/s
Encoded date : UTC 2018-10-05 09:22:00
Writing application : mkvmerge v26.0.0 ('In The Game') 64-bit
Writing library : libebml v1.3.6 + libmatroska v1.4.9 / Lavf58.12.100

Video
ID : 1
Format : AVC
Format/Info : Advanced Video Codec
Format profile : Main@L4
Format settings : CABAC / 3 Ref Frames
Format settings, CABAC : Yes
Format settings, RefFrames : 3 frames
Codec ID : V_MPEG4/ISO/AVC
Duration : 22 min 19 s
Bit rate mode : Variable
Bit rate : 4 020 kb/s
Maximum bit rate : 6 030 kb/s
Width : 1 920 pixels
Height : 1 080 pixels
Display aspect ratio : 16:9
Frame rate mode : Constant
Frame rate : 23.976 (24000/1001) FPS
Color space : YUV
Chroma subsampling : 4:2:0
Bit depth : 8 bits
Scan type : Progressive
Bits/(Pixel*Frame) : 0.081
Stream size : 627 MiB (86%)
Writing library : x264 core 148 r2715 7e75228
Encoding settings : cabac=1 / ref=3 / deblock=1:0:0 / analyse=0x1:0x111 / me=umh / subme=10 / psy=1 / psy_rd=1.00:0.00 / mixed_ref=1 / me_range=24 / chroma_me=1 / trellis=2 / 8x8dct=0 / cqm=0 / deadzone=21,11 / fast_pskip=1 / chroma_qp_offset=-2 / threads=8 / lookahead_threads=1 / sliced_threads=0 / nr=0 / decimate=1 / interlaced=0 / bluray_compat=0 / stitchable=1 / constrained_intra=0 / bframes=2 / b_pyramid=0 / b_adapt=2 / b_bias=0 / direct=3 / weightb=1 / open_gop=0 / weightp=2 / keyint=48 / keyint_min=25 / scenecut=0 / intra_refresh=0 / rc_lookahead=48 / rc=2pass / mbtree=1 / bitrate=4020 / ratetol=1.0 / qcomp=0.50 / qpmin=6 / qpmax=51 / qpstep=4 / cplxblur=20.0 / qblur=0.5 / vbv_maxrate=6030 / vbv_bufsize=8040 / nal_hrd=vbr / filler=0 / ip_ratio=1.40 / aq=1:1.00
Default : Yes
Forced : No

Audio
ID : 2
Format : E-AC-3
Format/Info : Enhanced Audio Coding 3
Format settings, Endianness : Big
Codec ID : A_EAC3
Duration : 22 min 19 s
Bit rate mode : Constant
Bit rate : 640 kb/s
Channel(s) : 6 channels
Channel positions : Front: L C R, Side: L R, LFE
Sampling rate : 48.0 kHz
Frame rate : 187.500 FPS (256 SPF)
Compression mode : Lossy
Stream size : 102 MiB (14%)
Service kind : Complete Main
Default : Yes
Forced : No

Text #1
ID : 3
Format : UTF-8
Codec ID : S_TEXT/UTF8
Codec ID/Info : UTF-8 Plain Text
Duration : 21 min 23 s
Bit rate : 116 b/s
Count of elements : 429
Stream size : 18.2 KiB (0%)
Title : English
Language : English
Default : No
Forced : No

Text #2
ID : 4
Format : UTF-8
Codec ID : S_TEXT/UTF8
Codec ID/Info : UTF-8 Plain Text
Duration : 21 min 28 s
Bit rate : 95 b/s
Count of elements : 413
Stream size : 15.1 KiB (0%)
Title : Czech
Language : Czech
Default : No
Forced : No

Text #3
ID : 5
Format : UTF-8
Codec ID : S_TEXT/UTF8
Codec ID/Info : UTF-8 Plain Text
Duration : 21 min 28 s
Bit rate : 103 b/s
Count of elements : 414
Stream size : 16.2 KiB (0%)
Title : Portuguese
Language : Portuguese
Default : No
Forced : No

Text #4
ID : 6
Format : UTF-8
Codec ID : S_TEXT/UTF8
Codec ID/Info : UTF-8 Plain Text
Duration : 21 min 28 s
Bit rate : 96 b/s
Count of elements : 410
Stream size : 15.1 KiB (0%)
Title : Polish
Language : Polish
Default : No
Forced : No

Text #5
ID : 7
Format : UTF-8
Codec ID : S_TEXT/UTF8
Codec ID/Info : UTF-8 Plain Text
Duration : 21 min 28 s
Bit rate : 107 b/s
Count of elements : 415
Stream size : 17.0 KiB (0%)
Title : Brazilian Portuguese
Language : Portuguese
Default : No
Forced : No

Text #6
ID : 8
Format : UTF-8
Codec ID : S_TEXT/UTF8
Codec ID/Info : UTF-8 Plain Text
Duration : 21 min 28 s
Bit rate : 180 b/s
Count of elements : 415
Stream size : 28.4 KiB (0%)
Title : Ukrainian
Default : No
Forced : No

Text #7
ID : 9
Format : UTF-8
Codec ID : S_TEXT/UTF8
Codec ID/Info : UTF-8 Plain Text
Duration : 21 min 28 s
Bit rate : 98 b/s
Count of elements : 413
Stream size : 15.5 KiB (0%)
Title : Swedish
Language : Swedish
Default : No
Forced : No

Text #8
ID : 10
Format : UTF-8
Codec ID : S_TEXT/UTF8
Codec ID/Info : UTF-8 Plain Text
Duration : 21 min 28 s
Bit rate : 96 b/s
Count of elements : 412
Stream size : 15.1 KiB (0%)
Title : Finnish
Language : Finnish
Default : No
Forced : No

Text #9
ID : 11
Format : UTF-8
Codec ID : S_TEXT/UTF8
Codec ID/Info : UTF-8 Plain Text
Duration : 21 min 28 s
Bit rate : 100 b/s
Count of elements : 411
Stream size : 15.8 KiB (0%)
Title : Hungarian
Default : No
Forced : No

Text #10
ID : 12
Format : UTF-8
Codec ID : S_TEXT/UTF8
Codec ID/Info : UTF-8 Plain Text
Duration : 21 min 28 s
Bit rate : 119 b/s
Count of elements : 415
Stream size : 18.8 KiB (0%)
Title : Icelandic
Default : No
Forced : No

Text #11
ID : 13
Format : UTF-8
Codec ID : S_TEXT/UTF8
Codec ID/Info : UTF-8 Plain Text
Duration : 21 min 28 s
Bit rate : 100 b/s
Count of elements : 413
Stream size : 15.8 KiB (0%)
Title : Norwegian
Language : Norwegian
Default : No
Forced : No

Text #12
ID : 14
Format : UTF-8
Codec ID : S_TEXT/UTF8
Codec ID/Info : UTF-8 Plain Text
Duration : 21 min 28 s
Bit rate : 88 b/s
Count of elements : 410
Stream size : 13.9 KiB (0%)
Title : Danish
Language : Danish
Default : No
Forced : No

Text #13
ID : 15
Format : UTF-8
Codec ID : S_TEXT/UTF8
Codec ID/Info : UTF-8 Plain Text
Duration : 21 min 28 s
Bit rate : 99 b/s
Count of elements : 415
Stream size : 15.6 KiB (0%)
Title : European Spanish
Language : Spanish
Default : No
Forced : No

Text #14
ID : 16
Format : UTF-8
Codec ID : S_TEXT/UTF8
Codec ID/Info : UTF-8 Plain Text
Duration : 21 min 28 s
Bit rate : 159 b/s
Count of elements : 414
Stream size : 25.1 KiB (0%)
Title : Russian
Default : No
Forced : No

Text #15
ID : 17
Format : UTF-8
Codec ID : S_TEXT/UTF8
Codec ID/Info : UTF-8 Plain Text
Duration : 21 min 28 s
Bit rate : 176 b/s
Count of elements : 414
Stream size : 27.7 KiB (0%)
Title : Greek
Default : No
Forced : No

Text #16
ID : 18
Format : UTF-8
Codec ID : S_TEXT/UTF8
Codec ID/Info : UTF-8 Plain Text
Duration : 21 min 28 s
Bit rate : 103 b/s
Count of elements : 415
Stream size : 16.3 KiB (0%)
Title : Spanish
Language : Spanish
Default : No
Forced : No

Text #17
ID : 19
Format : UTF-8
Codec ID : S_TEXT/UTF8
Codec ID/Info : UTF-8 Plain Text
Duration : 21 min 28 s
Bit rate : 103 b/s
Count of elements : 415
Stream size : 16.3 KiB (0%)
Title : Italian
Language : Italian
Default : No
Forced : No

Text #18
ID : 20
Format : UTF-8
Codec ID : S_TEXT/UTF8
Codec ID/Info : UTF-8 Plain Text
Duration : 21 min 28 s
Bit rate : 96 b/s
Count of elements : 415
Stream size : 15.2 KiB (0%)
Title : Indonesian
Default : No
Forced : No

Text #19
ID : 21
Format : UTF-8
Codec ID : S_TEXT/UTF8
Codec ID/Info : UTF-8 Plain Text
Duration : 21 min 28 s
Bit rate : 101 b/s
Count of elements : 413
Stream size : 16.0 KiB (0%)
Title : Malay
Default : No
Forced : No

Text #20
ID : 22
Format : UTF-8
Codec ID : S_TEXT/UTF8
Codec ID/Info : UTF-8 Plain Text
Duration : 21 min 28 s
Bit rate : 99 b/s
Count of elements : 410
Stream size : 15.7 KiB (0%)
Title : French
Language : French
Default : No
Forced : No

Text #21
ID : 23
Format : UTF-8
Codec ID : S_TEXT/UTF8
Codec ID/Info : UTF-8 Plain Text
Duration : 21 min 28 s
Bit rate : 108 b/s
Count of elements : 415
Stream size : 17.0 KiB (0%)
Title : Turkish
Language : Turkish
Default : No
Forced : No

Text #22
ID : 24
Format : UTF-8
Codec ID : S_TEXT/UTF8
Codec ID/Info : UTF-8 Plain Text
Duration : 21 min 28 s
Bit rate : 91 b/s
Count of elements : 398
Stream size : 14.3 KiB (0%)
Title : Dutch
Language : Dutch
Default : No
Forced : No





The Good Place S03E02


The Good Place S03E02


The Good Place S03E02


The Good Place S03E02


The Good Place S03E02

All episodes