Featured TV Shows


The Good Place S03E02

Posted By: Tavaz
720p (HD) / WEBRip IMDb
The Good Place S03E02

The Good Place S03E02
WEBRip | MKV | 1280x720 | English | H264 @ 3506 kbps | E-AC-3 @ 640 kbps | 21 min 34 s | 640 MiB
Subtitles: English
Genre: Comedy

Eleanor Shellstrop, an ordinary woman who, through an extraordinary string of events, enters the afterlife where she comes to realize that she hasn't been a very good person. With the help of her wise afterlife mentor, she's determined to shed her old way of living and discover the awesome (or at least the pretty good) person within.

The.Good.Place.S03E02.The.Brainy.Bunch.720p.AMZN.WEBRip.DD+5.1.x264-AJP69.mkv (640.3 MB)



General
Unique ID : 325559663790484208429606386784913450952 (0xF4EC82B14CA278A0C44BBE6FE7D5E7C8)
Complete name : ./The.Good.Place.S03E02.The.Brainy.Bunch.720p.AMZN.WEBRip.DD+5.1.x264-AJP69.mkv
Format : Matroska
Format version : Version 4 / Version 2
File size : 640 MiB
Duration : 21 min 34 s
Overall bit rate : 4 148 kb/s
Encoded date : UTC 2018-10-12 18:42:26
Writing application : mkvmerge v27.0.0 ('Metropolis') 64-bit
Writing library : libebml v1.3.6 + libmatroska v1.4.9 / Lavf58.12.100

Video
ID : 1
Format : AVC
Format/Info : Advanced Video Codec
Format profile : High@L4.1
Format settings : CABAC / 9 Ref Frames
Format settings, CABAC : Yes
Format settings, RefFrames : 9 frames
Codec ID : V_MPEG4/ISO/AVC
Duration : 21 min 34 s
Bit rate : 3 506 kb/s
Width : 1 280 pixels
Height : 720 pixels
Display aspect ratio : 16:9
Frame rate mode : Constant
Frame rate : 23.976 (24000/1001) FPS
Color space : YUV
Chroma subsampling : 4:2:0
Bit depth : 8 bits
Scan type : Progressive
Bits/(Pixel*Frame) : 0.159
Stream size : 541 MiB (85%)
Writing library : x264 core 155 r2901 7d0ff22
Encoding settings : cabac=1 / ref=9 / deblock=1:-3:-3 / analyse=0x3:0x133 / me=umh / subme=10 / psy=1 / psy_rd=1.00:0.00 / mixed_ref=1 / me_range=48 / chroma_me=1 / trellis=2 / 8x8dct=1 / cqm=0 / deadzone=21,11 / fast_pskip=0 / chroma_qp_offset=-2 / threads=12 / lookahead_threads=2 / sliced_threads=0 / nr=0 / decimate=1 / interlaced=0 / bluray_compat=0 / constrained_intra=0 / bframes=8 / b_pyramid=2 / b_adapt=2 / b_bias=0 / direct=3 / weightb=1 / open_gop=0 / weightp=2 / keyint=250 / keyint_min=23 / scenecut=40 / intra_refresh=0 / rc=crf / mbtree=0 / crf=17.0 / qcomp=0.60 / qpmin=0 / qpmax=69 / qpstep=4 / ip_ratio=1.40 / pb_ratio=1.30 / aq=3:0.70
Default : Yes
Forced : No

Audio
ID : 2
Format : E-AC-3
Format/Info : Enhanced Audio Coding 3
Format settings, Endianness : Big
Codec ID : A_EAC3
Duration : 21 min 34 s
Bit rate mode : Constant
Bit rate : 640 kb/s
Channel(s) : 6 channels
Channel positions : Front: L C R, Side: L R, LFE
Sampling rate : 48.0 kHz
Frame rate : 187.500 FPS (256 SPF)
Compression mode : Lossy
Stream size : 98.8 MiB (15%)
Language : English
Service kind : Complete Main
Default : Yes
Forced : No

Text
ID : 3
Format : UTF-8
Codec ID : S_TEXT/UTF8
Codec ID/Info : UTF-8 Plain Text
Duration : 21 min 22 s
Bit rate : 117 b/s
Count of elements : 596
Stream size : 18.5 KiB (0%)
Language : English
Default : No
Forced : No





The Good Place S03E02


The Good Place S03E02


The Good Place S03E02


The Good Place S03E02


The Good Place S03E02

All episodes