Featured TV Shows


The Good Place S03E10

Posted By: Tavaz
1080p (FullHD) / WEBRip IMDb
The Good Place S03E10

The Good Place S03E10
WEBRip | MKV | 1920x1080 | English | H264 @ 4220 kbps | E-AC-3 @ 640 kbps | 23 min 15 s | 793 MiB
Subtitles: Swedish, Portuguese, Indonesian, Icelandic, Hungarian, Finnish, Danish, Czech, Spanish, Malay, French, Norwegian Bokmal, Greek, Turkish, Ukrainian, Dutch, Russian, Polish, English, Italian
Genre: Comedy

Eleanor Shellstrop, an ordinary woman who, through an extraordinary string of events, enters the afterlife where she comes to realize that she hasn't been a very good person. With the help of her wise afterlife mentor, she's determined to shed her old way of living and discover the awesome (or at least the pretty good) person within.

95a84686a3c2482fb061b88b5c7c5a05.mkv (793.3 MB)



General
Unique ID : 228075110307179195407689224963012871595 (0xAB95AB1F9AD7D7C1C15317D2C192C5AB)
Complete name : ./95a84686a3c2482fb061b88b5c7c5a05.mkv
Format : Matroska
Format version : Version 4 / Version 2
File size : 793 MiB
Duration : 23 min 15 s
Overall bit rate mode : Variable
Overall bit rate : 4 767 kb/s
Encoded date : UTC 2018-12-07 08:00:59
Writing application : mkvmerge v21.0.0 ('Tardigrades Will Inherit The Earth') 64-bit
Writing library : libebml v1.3.5 + libmatroska v1.4.8

Video
ID : 1
Format : AVC
Format/Info : Advanced Video Codec
Format profile : Main@L4
Format settings : CABAC / 3 Ref Frames
Format settings, CABAC : Yes
Format settings, RefFrames : 3 frames
Codec ID : V_MPEG4/ISO/AVC
Duration : 23 min 15 s
Bit rate mode : Variable
Bit rate : 4 220 kb/s
Maximum bit rate : 6 330 kb/s
Width : 1 920 pixels
Height : 1 080 pixels
Display aspect ratio : 16:9
Frame rate mode : Constant
Frame rate : 23.976 (24000/1001) FPS
Color space : YUV
Chroma subsampling : 4:2:0
Bit depth : 8 bits
Scan type : Progressive
Bits/(Pixel*Frame) : 0.085
Stream size : 686 MiB (86%)
Writing library : x264 core 148 r2715 7e75228
Encoding settings : cabac=1 / ref=3 / deblock=1:0:0 / analyse=0x1:0x111 / me=umh / subme=10 / psy=1 / psy_rd=1.00:0.00 / mixed_ref=1 / me_range=24 / chroma_me=1 / trellis=2 / 8x8dct=0 / cqm=0 / deadzone=21,11 / fast_pskip=1 / chroma_qp_offset=-2 / threads=8 / lookahead_threads=1 / sliced_threads=0 / nr=0 / decimate=1 / interlaced=0 / bluray_compat=0 / stitchable=1 / constrained_intra=0 / bframes=2 / b_pyramid=0 / b_adapt=2 / b_bias=0 / direct=3 / weightb=1 / open_gop=0 / weightp=2 / keyint=48 / keyint_min=25 / scenecut=0 / intra_refresh=0 / rc_lookahead=48 / rc=2pass / mbtree=1 / bitrate=4220 / ratetol=1.0 / qcomp=0.50 / qpmin=6 / qpmax=51 / qpstep=4 / cplxblur=20.0 / qblur=0.5 / vbv_maxrate=6330 / vbv_bufsize=8440 / nal_hrd=vbr / filler=0 / ip_ratio=1.40 / aq=1:1.00
Default : Yes
Forced : No

Audio
ID : 2
Format : E-AC-3
Format/Info : Enhanced Audio Coding 3
Format settings, Endianness : Big
Codec ID : A_EAC3
Duration : 23 min 15 s
Bit rate mode : Constant
Bit rate : 640 kb/s
Channel(s) : 6 channels
Channel positions : Front: L C R, Side: L R, LFE
Sampling rate : 48.0 kHz
Frame rate : 187.500 FPS (256 SPF)
Compression mode : Lossy
Stream size : 106 MiB (13%)
Language : English
Service kind : Complete Main
Default : Yes
Forced : No

Text #1
ID : 3
Format : UTF-8
Codec ID : S_TEXT/UTF8
Codec ID/Info : UTF-8 Plain Text
Duration : 22 min 18 s
Bit rate : 111 b/s
Count of elements : 441
Stream size : 18.3 KiB (0%)
Language : English
Default : No
Forced : No

Text #2
ID : 4
Format : UTF-8
Codec ID : S_TEXT/UTF8
Codec ID/Info : UTF-8 Plain Text
Duration : 22 min 24 s
Bit rate : 104 b/s
Count of elements : 426
Stream size : 17.2 KiB (0%)
Title : Brazilian
Language : Portuguese
Default : No
Forced : No

Text #3
ID : 5
Format : UTF-8
Codec ID : S_TEXT/UTF8
Codec ID/Info : UTF-8 Plain Text
Duration : 22 min 24 s
Bit rate : 96 b/s
Count of elements : 426
Stream size : 15.8 KiB (0%)
Language : Czech
Default : No
Forced : No

Text #4
ID : 6
Format : UTF-8
Codec ID : S_TEXT/UTF8
Codec ID/Info : UTF-8 Plain Text
Duration : 22 min 24 s
Bit rate : 87 b/s
Count of elements : 426
Stream size : 14.3 KiB (0%)
Language : Danish
Default : No
Forced : No

Text #5
ID : 7
Format : UTF-8
Codec ID : S_TEXT/UTF8
Codec ID/Info : UTF-8 Plain Text
Duration : 22 min 24 s
Bit rate : 93 b/s
Count of elements : 420
Stream size : 15.4 KiB (0%)
Language : Dutch
Default : No
Forced : No

Text #6
ID : 8
Format : UTF-8
Codec ID : S_TEXT/UTF8
Codec ID/Info : UTF-8 Plain Text
Duration : 22 min 24 s
Bit rate : 97 b/s
Count of elements : 426
Stream size : 16.1 KiB (0%)
Title : European
Language : Spanish
Default : No
Forced : No

Text #7
ID : 9
Format : UTF-8
Codec ID : S_TEXT/UTF8
Codec ID/Info : UTF-8 Plain Text
Duration : 22 min 24 s
Bit rate : 94 b/s
Count of elements : 426
Stream size : 15.5 KiB (0%)
Language : Finnish
Default : No
Forced : No

Text #8
ID : 10
Format : UTF-8
Codec ID : S_TEXT/UTF8
Codec ID/Info : UTF-8 Plain Text
Duration : 22 min 24 s
Bit rate : 100 b/s
Count of elements : 426
Stream size : 16.4 KiB (0%)
Language : French
Default : No
Forced : No

Text #9
ID : 11
Format : UTF-8
Codec ID : S_TEXT/UTF8
Codec ID/Info : UTF-8 Plain Text
Duration : 22 min 24 s
Bit rate : 170 b/s
Count of elements : 426
Stream size : 28.0 KiB (0%)
Language : Greek
Default : No
Forced : No

Text #10
ID : 12
Format : UTF-8
Codec ID : S_TEXT/UTF8
Codec ID/Info : UTF-8 Plain Text
Duration : 22 min 24 s
Bit rate : 97 b/s
Count of elements : 426
Stream size : 16.1 KiB (0%)
Language : Hungarian
Default : No
Forced : No

Text #11
ID : 13
Format : UTF-8
Codec ID : S_TEXT/UTF8
Codec ID/Info : UTF-8 Plain Text
Duration : 22 min 24 s
Bit rate : 118 b/s
Count of elements : 426
Stream size : 19.4 KiB (0%)
Language : Icelandic
Default : No
Forced : No

Text #12
ID : 14
Format : UTF-8
Codec ID : S_TEXT/UTF8
Codec ID/Info : UTF-8 Plain Text
Duration : 22 min 24 s
Bit rate : 95 b/s
Count of elements : 426
Stream size : 15.7 KiB (0%)
Language : Indonesian
Default : No
Forced : No

Text #13
ID : 15
Format : UTF-8
Codec ID : S_TEXT/UTF8
Codec ID/Info : UTF-8 Plain Text
Duration : 22 min 24 s
Bit rate : 102 b/s
Count of elements : 426
Stream size : 16.8 KiB (0%)
Language : Italian
Default : No
Forced : No

Text #14
ID : 16
Format : UTF-8
Codec ID : S_TEXT/UTF8
Codec ID/Info : UTF-8 Plain Text
Duration : 22 min 24 s
Bit rate : 99 b/s
Count of elements : 426
Stream size : 16.3 KiB (0%)
Language : Malay
Default : No
Forced : No

Text #15
ID : 17
Format : UTF-8
Codec ID : S_TEXT/UTF8
Codec ID/Info : UTF-8 Plain Text
Duration : 22 min 24 s
Bit rate : 98 b/s
Count of elements : 426
Stream size : 16.2 KiB (0%)
Language : Norwegian Bokmal
Default : No
Forced : No

Text #16
ID : 18
Format : UTF-8
Codec ID : S_TEXT/UTF8
Codec ID/Info : UTF-8 Plain Text
Duration : 22 min 24 s
Bit rate : 94 b/s
Count of elements : 425
Stream size : 15.4 KiB (0%)
Language : Polish
Default : No
Forced : No

Text #17
ID : 19
Format : UTF-8
Codec ID : S_TEXT/UTF8
Codec ID/Info : UTF-8 Plain Text
Duration : 22 min 24 s
Bit rate : 99 b/s
Count of elements : 426
Stream size : 16.4 KiB (0%)
Language : Portuguese
Default : No
Forced : No

Text #18
ID : 20
Format : UTF-8
Codec ID : S_TEXT/UTF8
Codec ID/Info : UTF-8 Plain Text
Duration : 22 min 24 s
Bit rate : 155 b/s
Count of elements : 426
Stream size : 25.5 KiB (0%)
Language : Russian
Default : No
Forced : No

Text #19
ID : 21
Format : UTF-8
Codec ID : S_TEXT/UTF8
Codec ID/Info : UTF-8 Plain Text
Duration : 22 min 24 s
Bit rate : 103 b/s
Count of elements : 426
Stream size : 17.0 KiB (0%)
Language : Spanish
Default : No
Forced : No

Text #20
ID : 22
Format : UTF-8
Codec ID : S_TEXT/UTF8
Codec ID/Info : UTF-8 Plain Text
Duration : 22 min 24 s
Bit rate : 98 b/s
Count of elements : 426
Stream size : 16.2 KiB (0%)
Language : Swedish
Default : No
Forced : No

Text #21
ID : 23
Format : UTF-8
Codec ID : S_TEXT/UTF8
Codec ID/Info : UTF-8 Plain Text
Duration : 22 min 24 s
Bit rate : 102 b/s
Count of elements : 426
Stream size : 16.8 KiB (0%)
Language : Turkish
Default : No
Forced : No

Text #22
ID : 24
Format : UTF-8
Codec ID : S_TEXT/UTF8
Codec ID/Info : UTF-8 Plain Text
Duration : 22 min 24 s
Bit rate : 177 b/s
Count of elements : 426
Stream size : 29.0 KiB (0%)
Language : Ukrainian
Default : No
Forced : No





The Good Place S03E10


The Good Place S03E10


The Good Place S03E10


The Good Place S03E10


The Good Place S03E10

All episodes