Featured TV Shows


The Good Place S04E11

Posted By: Tavaz
1080p (FullHD) / BDRip IMDb
The Good Place S04E11

The Good Place S04E11
BluRay Remux | MKV | 1920x1080 | English | H264 @ 29757 kbps | DTS | 23 min 58 s | 5.44 GiB
Subtitles: English
Genre: Comedy


Eleanor Shellstrop, an ordinary woman who, through an extraordinary string of events, enters the afterlife where she comes to realize that she hasn't been a very good person. With the help of her wise afterlife mentor, she's determined to shed her old way of living and discover the awesome (or at least the pretty good) person within.

75a469609721736c5c56ad7a4abf4fac.mkv (5.4 GB)



General
Unique ID : 196701559493949766964021249810797768254 (0x93FB57A47E152F4396C5A87DF4752E3E)
Complete name : ./75a469609721736c5c56ad7a4abf4fac.mkv
Format : Matroska
Format version : Version 4 / Version 2
File size : 5.44 GiB
Duration : 23 min 58 s
Overall bit rate mode : Variable
Overall bit rate : 32.5 Mb/s
Track name/Position : 11
Track name/Total : 13
Encoded date : UTC 2020-05-22 21:49:45
Writing application : mkvmerge v46.0.0 ('No Deeper Escape') 64-bit
Writing library : libebml v1.3.10 + libmatroska v1.5.2
IMDB : tt10680456
TMDB : tv/66573
TVDB : 311711

Video
ID : 1
Format : AVC
Format/Info : Advanced Video Codec
Format profile : High@L4.1
Format settings : CABAC / 4 Ref Frames
Format settings, CABAC : Yes
Format settings, RefFrames : 4 frames
Codec ID : V_MPEG4/ISO/AVC
Duration : 23 min 57 s
Bit rate mode : Variable
Bit rate : 29.8 Mb/s
Maximum bit rate : 36.0 Mb/s
Width : 1 920 pixels
Height : 1 080 pixels
Display aspect ratio : 16:9
Frame rate mode : Constant
Frame rate : 23.976 (24000/1001) FPS
Color space : YUV
Chroma subsampling : 4:2:0
Bit depth : 8 bits
Scan type : Progressive
Bits/(Pixel*Frame) : 0.599
Stream size : 4.98 GiB (92%)
Title : MPEG-4 AVC Video / 29997 kbps / 1080p / 23.976 fps / 16:9 / High Profile 4.1
Language : English
Default : Yes
Forced : No

Audio
ID : 2
Format : DTS
Format/Info : Digital Theater Systems
Format profile : MA / Core
Mode : 16
Format settings, Endianness : Big
Codec ID : A_DTS
Duration : 23 min 58 s
Bit rate mode : Variable / Constant
Bit rate : 2 668 kb/s / 1 509 kb/s
Channel(s) : 6 channels
Channel positions : Front: L C R, Side: L R, LFE
Sampling rate : 48.0 kHz
Frame rate : 93.750 FPS (512 SPF)
Bit depth : 24 bits
Compression mode : Lossless / Lossy
Stream size : 457 MiB (8%)
Title : DTS-HD Master Audio / 5.1 / 48 kHz / 2670 kbps / 24-bit
Language : English
Default : Yes
Forced : No

Text
ID : 3
Format : PGS
Codec ID : S_HDMV/PGS
Codec ID/Info : Picture based subtitle format used on BDs/HD-DVDs
Duration : 23 min 8 s
Bit rate : 69.1 kb/s
Count of elements : 900
Stream size : 11.4 MiB (0%)
Title : SDH
Language : English
Default : No
Forced : No





The Good Place S04E11


The Good Place S04E11


The Good Place S04E11


The Good Place S04E11


The Good Place S04E11

All episodes