Featured TV Shows


The Grand Tour S03E10

Posted By: Tavaz
720p (HD) / WEBRip IMDb
The Grand Tour S03E10

The Grand Tour S03E10
WEBRip | MKV | 1280x720 | English | H264 @ 5080 kbps | E-AC-3 @ 640 kbps | 1 h 4 min | 2.56 GiB
Subtitles: English
Genre: Documentary

Jeremy Clarkson, Richard Hammond and James May are back with a show about adventure, excitement and friendship… as long as you accept that the people you call friends are also the ones you find extremely annoying. Sometimes it's even a show about cars. Follow them on their global adventure.

e58d7aa44ddc4fd4a53a21af6df64605.mkv (2.6 GB)



General
Unique ID : 300398877369178377046600356647024523758 (0xE1FEB82542DED00325D6F2AB1408F9EE)
Complete name : ./e58d7aa44ddc4fd4a53a21af6df64605.mkv
Format : Matroska
Format version : Version 4 / Version 2
File size : 2.56 GiB
Duration : 1 h 4 min
Overall bit rate : 5 723 kb/s
Encoded date : UTC 2019-03-14 23:00:50
Writing application : mkvmerge v30.1.0 ('Forever And More') 64-bit
Writing library : libebml v1.3.6 + libmatroska v1.4.9

Video
ID : 1
Format : AVC
Format/Info : Advanced Video Codec
Format profile : High@L3.1
Format settings : CABAC / 4 Ref Frames
Format settings, CABAC : Yes
Format settings, RefFrames : 4 frames
Codec ID : V_MPEG4/ISO/AVC
Duration : 1 h 4 min
Bit rate mode : Constant
Bit rate : 5 081 kb/s
Nominal bit rate : 6 000 kb/s
Width : 1 280 pixels
Height : 720 pixels
Display aspect ratio : 16:9
Frame rate mode : Constant
Frame rate : 25.000 FPS
Color space : YUV
Chroma subsampling : 4:2:0
Bit depth : 8 bits
Scan type : Progressive
Bits/(Pixel*Frame) : 0.221
Stream size : 2.28 GiB (89%)
Language : English
Default : Yes
Forced : No
Color range : Limited
Color primaries : BT.709
Transfer characteristics : BT.709
Matrix coefficients : BT.709

Audio
ID : 2
Format : E-AC-3
Format/Info : Enhanced Audio Coding 3
Format settings, Endianness : Big
Codec ID : A_EAC3
Duration : 1 h 4 min
Bit rate mode : Constant
Bit rate : 640 kb/s
Channel(s) : 6 channels
Channel positions : Front: L C R, Side: L R, LFE
Sampling rate : 48.0 kHz
Frame rate : 187.500 FPS (256 SPF)
Compression mode : Lossy
Stream size : 294 MiB (11%)
Language : English
Service kind : Complete Main
Default : Yes
Forced : No

Text
ID : 3
Format : UTF-8
Codec ID : S_TEXT/UTF8
Codec ID/Info : UTF-8 Plain Text
Duration : 1 h 3 min
Bit rate : 100 b/s
Count of elements : 1227
Stream size : 46.8 KiB (0%)
Title : English
Language : English
Default : No
Forced : No





The Grand Tour S03E10


The Grand Tour S03E10


The Grand Tour S03E10


The Grand Tour S03E10


The Grand Tour S03E10

All episodes