Featured TV Shows


The Grand Tour S03E10

Posted By: Tavaz
SD / WEBRip IMDb
The Grand Tour S03E10

The Grand Tour S03E10
WEBRip | MKV | 720x480 | English | H264 @ 1007 kbps | E-AC-3 @ 224 kbps | 1 h 4 min | 568 MiB
Subtitles: Portuguese, Indonesian, Dutch, Telugu, Finnish, Turkish, German, English, Japanese, French, Danish, Hindi, Spanish, Russian, Polish, Korean, Chinese, Tamil, Italian
Genre: Documentary

Jeremy Clarkson, Richard Hammond and James May are back with a show about adventure, excitement and friendship… as long as you accept that the people you call friends are also the ones you find extremely annoying. Sometimes it's even a show about cars. Follow them on their global adventure.

fe91b34d6f264d7290c61b5d4fd64ceb.mkv (567.6 MB)



General
Unique ID : 317868673890270952581730038147663565698 (0xEF23479D3944EBC92BBA8B4B36EC9382)
Complete name : ./fe91b34d6f264d7290c61b5d4fd64ceb.mkv
Format : Matroska
Format version : Version 4 / Version 2
File size : 568 MiB
Duration : 1 h 4 min
Overall bit rate : 1 238 kb/s
Encoded date : UTC 2019-03-14 23:02:26
Writing application : mkvmerge v32.0.0 ('Astral Progressions') 32-bit
Writing library : libebml v1.3.7 + libmatroska v1.5.0

Video
ID : 1
Format : AVC
Format/Info : Advanced Video Codec
Format profile : Main@L3
Format settings : CABAC / 5 Ref Frames
Format settings, CABAC : Yes
Format settings, RefFrames : 5 frames
Codec ID : V_MPEG4/ISO/AVC
Duration : 1 h 4 min
Bit rate : 1 008 kb/s
Width : 720 pixels
Height : 480 pixels
Display aspect ratio : 16:9
Frame rate mode : Constant
Frame rate : 25.000 FPS
Color space : YUV
Chroma subsampling : 4:2:0
Bit depth : 8 bits
Scan type : Progressive
Bits/(Pixel*Frame) : 0.117
Stream size : 462 MiB (81%)
Default : Yes
Forced : No
Color range : Limited
Color primaries : BT.709
Transfer characteristics : BT.709
Matrix coefficients : BT.709

Audio
ID : 2
Format : E-AC-3
Format/Info : Enhanced Audio Coding 3
Format settings, Endianness : Big
Codec ID : A_EAC3
Duration : 1 h 4 min
Bit rate mode : Constant
Bit rate : 224 kb/s
Channel(s) : 2 channels
Channel positions : Front: L R
Sampling rate : 48.0 kHz
Frame rate : 187.500 FPS (256 SPF)
Compression mode : Lossy
Stream size : 103 MiB (18%)
Title : English
Language : English
Service kind : Complete Main
Default : Yes
Forced : No

Text #1
ID : 3
Format : UTF-8
Codec ID : S_TEXT/UTF8
Codec ID/Info : UTF-8 Plain Text
Duration : 1 h 3 min
Bit rate : 101 b/s
Count of elements : 1227
Stream size : 46.9 KiB (0%)
Title : English [SDH]
Language : English
Default : No
Forced : No

Text #2
ID : 4
Format : UTF-8
Codec ID : S_TEXT/UTF8
Codec ID/Info : UTF-8 Plain Text
Duration : 1 h 2 min
Bit rate : 98 b/s
Count of elements : 1096
Stream size : 45.1 KiB (0%)
Title : Spanish [Full]
Language : Spanish
Default : No
Forced : No

Text #3
ID : 5
Format : UTF-8
Codec ID : S_TEXT/UTF8
Codec ID/Info : UTF-8 Plain Text
Duration : 1 h 3 min
Bit rate : 93 b/s
Count of elements : 1102
Stream size : 43.1 KiB (0%)
Title : French [Full]
Language : French
Default : No
Forced : No

Text #4
ID : 6
Format : UTF-8
Codec ID : S_TEXT/UTF8
Codec ID/Info : UTF-8 Plain Text
Duration : 1 h 2 min
Bit rate : 88 b/s
Count of elements : 911
Stream size : 40.4 KiB (0%)
Title : German [Full]
Language : German
Default : No
Forced : No

Text #5
ID : 7
Format : UTF-8
Codec ID : S_TEXT/UTF8
Codec ID/Info : UTF-8 Plain Text
Duration : 1 h 2 min
Bit rate : 93 b/s
Count of elements : 1095
Stream size : 42.9 KiB (0%)
Title : Italian [Full]
Language : Italian
Default : No
Forced : No

Text #6
ID : 8
Format : UTF-8
Codec ID : S_TEXT/UTF8
Codec ID/Info : UTF-8 Plain Text
Duration : 1 h 2 min
Bit rate : 98 b/s
Count of elements : 1095
Stream size : 45.0 KiB (0%)
Title : Brazilian Portuguese [Full]
Language : Portuguese
Default : No
Forced : No

Text #7
ID : 9
Format : UTF-8
Codec ID : S_TEXT/UTF8
Codec ID/Info : UTF-8 Plain Text
Duration : 1 h 3 min
Bit rate : 91 b/s
Count of elements : 1106
Stream size : 42.4 KiB (0%)
Title : Polish [Full]
Language : Polish
Default : No
Forced : No

Text #8
ID : 10
Format : UTF-8
Codec ID : S_TEXT/UTF8
Codec ID/Info : UTF-8 Plain Text
Duration : 1 h 2 min
Bit rate : 88 b/s
Count of elements : 1096
Stream size : 40.4 KiB (0%)
Title : Turkish [Full]
Language : Turkish
Default : No
Forced : No

Text #9
ID : 11
Format : UTF-8
Codec ID : S_TEXT/UTF8
Codec ID/Info : UTF-8 Plain Text
Duration : 1 h 3 min
Bit rate : 95 b/s
Count of elements : 1105
Stream size : 44.2 KiB (0%)
Title : Danish [Full]
Language : Danish
Default : No
Forced : No

Text #10
ID : 12
Format : UTF-8
Codec ID : S_TEXT/UTF8
Codec ID/Info : UTF-8 Plain Text
Duration : 1 h 3 min
Bit rate : 89 b/s
Count of elements : 1107
Stream size : 41.5 KiB (0%)
Title : Finnish [Full]
Language : Finnish
Default : No
Forced : No

Text #11
ID : 13
Format : UTF-8
Codec ID : S_TEXT/UTF8
Codec ID/Info : UTF-8 Plain Text
Duration : 1 h 3 min
Bit rate : 86 b/s
Count of elements : 1102
Stream size : 39.9 KiB (0%)
Title : Dutch [Full]
Language : Dutch
Default : No
Forced : No

Text #12
ID : 14
Format : UTF-8
Codec ID : S_TEXT/UTF8
Codec ID/Info : UTF-8 Plain Text
Duration : 1 h 3 min
Bit rate : 177 b/s
Count of elements : 1113
Stream size : 82.1 KiB (0%)
Title : Russian [Full]
Language : Russian
Default : No
Forced : No

Text #13
ID : 15
Format : UTF-8
Codec ID : S_TEXT/UTF8
Codec ID/Info : UTF-8 Plain Text
Duration : 1 h 3 min
Bit rate : 246 b/s
Count of elements : 1115
Stream size : 114 KiB (0%)
Title : Hindi [Full]
Language : Hindi
Default : No
Forced : No

Text #14
ID : 16
Format : UTF-8
Codec ID : S_TEXT/UTF8
Codec ID/Info : UTF-8 Plain Text
Duration : 1 h 3 min
Bit rate : 277 b/s
Count of elements : 1115
Stream size : 128 KiB (0%)
Title : Tamil [Full]
Language : Tamil
Default : No
Forced : No

Text #15
ID : 17
Format : UTF-8
Codec ID : S_TEXT/UTF8
Codec ID/Info : UTF-8 Plain Text
Duration : 1 h 3 min
Bit rate : 258 b/s
Count of elements : 1115
Stream size : 120 KiB (0%)
Title : Telugu [Full]
Language : Telugu
Default : No
Forced : No

Text #16
ID : 18
Format : UTF-8
Codec ID : S_TEXT/UTF8
Codec ID/Info : UTF-8 Plain Text
Duration : 1 h 3 min
Bit rate : 82 b/s
Count of elements : 1104
Stream size : 38.2 KiB (0%)
Title : Indonesian [Full]
Language : Indonesian
Default : No
Forced : No

Text #17
ID : 19
Format : UTF-8
Codec ID : S_TEXT/UTF8
Codec ID/Info : UTF-8 Plain Text
Duration : 1 h 3 min
Bit rate : 113 b/s
Count of elements : 1115
Stream size : 52.4 KiB (0%)
Title : Korean [Full]
Language : Korean
Default : No
Forced : No

Text #18
ID : 20
Format : UTF-8
Codec ID : S_TEXT/UTF8
Codec ID/Info : UTF-8 Plain Text
Duration : 1 h 3 min
Bit rate : 94 b/s
Count of elements : 1115
Stream size : 44.0 KiB (0%)
Title : Chinese (Simplified) [Full]
Language : Chinese
Default : No
Forced : No

Text #19
ID : 21
Format : UTF-8
Codec ID : S_TEXT/UTF8
Codec ID/Info : UTF-8 Plain Text
Duration : 1 h 3 min
Bit rate : 86 b/s
Count of elements : 1115
Stream size : 40.1 KiB (0%)
Title : Chinese (Traditional) [Full]
Language : Chinese
Default : No
Forced : No

Text #20
ID : 22
Format : UTF-8
Codec ID : S_TEXT/UTF8
Codec ID/Info : UTF-8 Plain Text
Duration : 1 h 2 min
Bit rate : 77 b/s
Count of elements : 976
Stream size : 35.6 KiB (0%)
Title : Japanese [Full]
Language : Japanese
Default : No
Forced : No

Menu
00:00:00.000 : en:Amazon Original
00:00:05.000 : en:Title Sequence
00:00:56.000 : en:On this week's show
00:01:35.000 : en:The Ferrari Testarossa
00:04:42.000 : en:The Lamborghini Countach
00:08:07.000 : en:A battle between the most popular cars of the 80's
00:12:20.000 : en:Testing around the Eboladrome
00:17:25.000 : en:Conversation Street
00:26:28.000 : en:Who has the hottest hatchback?
00:36:33.000 : en:Appealing to millennials
00:41:13.000 : en:Trying to get into The Daily Mail
00:47:18.000 : en:An instagram challenge
00:50:25.000 : en:Different ways to create a hit on Youtube
00:56:41.000 : en:The winner of the hottest hatchback
01:03:30.000 : en:End Credits





The Grand Tour S03E10


The Grand Tour S03E10


The Grand Tour S03E10


The Grand Tour S03E10


The Grand Tour S03E10

All episodes