Featured TV Shows


The Grand Tour S04E01

Posted By: Tavaz
The Grand Tour S04E01

The Grand Tour S04E01
MKV | 1280x720 | English | H265 @ 1788 kbps | E-AC-3 @ 640 kbps | 1 h 31 min | 1.58 GiB
Subtitles: English
Genre: Documentary


Jeremy Clarkson, Richard Hammond and James May are back with a show about adventure, excitement and friendship… as long as you accept that the people you call friends are also the ones you find extremely annoying. Sometimes it's even a show about cars. Follow them on their global adventure.

5f0b4e32a9024db394e69a2dd665c9da.mkv (1.6 GB)



General
Unique ID : 100292368642213875621209845687478485510 (0x4B739B8B6BF489C17F77BF803B418206)
Complete name : ./5f0b4e32a9024db394e69a2dd665c9da.mkv
Format : Matroska
Format version : Version 4 / Version 2
File size : 1.58 GiB
Duration : 1 h 31 min
Overall bit rate : 2 477 kb/s
Writing application : Lavf58.30.100
Writing library : Lavf58.30.100
ErrorDetectionType : Per level 1

Video
ID : 1
Format : HEVC
Format/Info : High Efficiency Video Coding
Format profile : Main 10@L3.1@Main
Codec ID : V_MPEGH/ISO/HEVC
Duration : 1 h 31 min
Bit rate : 1 788 kb/s
Width : 1 280 pixels
Height : 720 pixels
Display aspect ratio : 16:9
Frame rate mode : Constant
Frame rate : 25.000 FPS
Color space : YUV
Chroma subsampling : 4:2:0
Bit depth : 10 bits
Bits/(Pixel*Frame) : 0.078
Stream size : 1.14 GiB (72%)
Writing library : x265 3.1+11-de920e0a3183:[Windows][GCC 9.1.1][64 bit] 10bit
Encoding settings : cpuid=1111039 / frame-threads=4 / numa-pools=16 / wpp / no-pmode / no-pme / no-psnr / no-ssim / log-level=2 / input-csp=1 / input-res=1280x720 / interlace=0 / total-frames=0 / level-idc=0 / high-tier=1 / uhd-bd=0 / ref=1 / no-allow-non-conformance / no-repeat-headers / annexb / no-aud / no-hrd / info / hash=0 / no-temporal-layers / open-gop / min-keyint=25 / keyint=250 / gop-lookahead=0 / bframes=3 / b-adapt=0 / b-pyramid / bframe-bias=0 / rc-lookahead=5 / lookahead-slices=4 / scenecut=0 / radl=0 / no-splice / no-intra-refresh / ctu=32 / min-cu-size=16 / no-rect / no-amp / max-tu-size=32 / tu-inter-depth=1 / tu-intra-depth=1 / limit-tu=0 / rdoq-level=0 / dynamic-rd=0.00 / no-ssim-rd / no-signhide / no-tskip / nr-intra=0 / nr-inter=0 / no-constrained-intra / strong-intra-smoothing / max-merge=2 / limit-refs=0 / no-limit-modes / me=0 / subme=0 / merange=57 / temporal-mvp / no-hme / no-weightp / no-weightb / no-analyze-src-pics / deblock=0:0 / no-sao / no-sao-non-deblock / rd=2 / early-skip / rskip / fast-intra / no-tskip-fast / no-cu-lossless / no-b-intra / no-splitrd-skip / rdpenalty=0 / psy-rd=2.00 / psy-rdoq=0.00 / no-rd-refine / no-lossless / cbqpoffs=0 / crqpoffs=0 / rc=crf / crf=22.0 / qcomp=0.60 / qpstep=4 / stats-write=0 / stats-read=0 / ipratio=1.40 / pbratio=1.30 / aq-mode=1 / aq-strength=0.00 / cutree / zone-count=0 / no-strict-cbr / qg-size=32 / no-rc-grain / qpmax=69 / qpmin=0 / no-const-vbv / sar=1 / overscan=0 / videoformat=5 / range=0 / colorprim=2 / transfer=2 / colormatrix=2 / chromaloc=0 / display-window=0cll=0,0 / min-luma=0 / max-luma=1023 / log2-max-poc-lsb=8 / vui-timing-info / vui-hrd-info / slices=1 / no-opt-qp-pps / no-opt-ref-list-length-pps / no-multi-pass-opt-rps / scenecut-bias=0.05 / no-opt-cu-delta-qp / no-aq-motion / no-hdr / no-hdr-opt / no-dhdr10-opt / no-idr-recovery-sei / analysis-reuse-level=5 / scale-factor=0 / refine-intra=0 / refine-inter=0 / refine-mv=0 / refine-ctu-distortion=0 / no-limit-sao / ctu-info=0 / no-lowpass-dct / refine-analysis-type=0 / copy-pic=1 / max-ausize-factor=1.0 / no-dynamic-refine / no-single-sei / no-hevc-aq / no-svt / no-field / qp-adaptation-range=1.00
Default : Yes
Forced : No
Color range : Limited
Statistics Tags Issue : mkvmerge v32.0.0 ('Astral Progressions') 32-bit 2019-12-12 21:37:39 / Lavf58.30.100
FromStats_BitRate : 5559319
FromStats_Duration : 01:31:34.800000000
FromStats_FrameCount : 137370
FromStats_StreamSize : 3818418776

Audio
ID : 2
Format : E-AC-3
Format/Info : Enhanced Audio Coding 3
Format settings, Endianness : Big
Codec ID : A_EAC3
Duration : 1 h 31 min
Bit rate mode : Constant
Bit rate : 640 kb/s
Channel(s) : 6 channels
Channel positions : Front: L C R, Side: L R, LFE
Sampling rate : 48.0 kHz
Frame rate : 187.500 FPS (256 SPF)
Bit depth : 32 bits
Compression mode : Lossy
Stream size : 419 MiB (26%)
Title : English
Language : English
Service kind : Complete Main
Default : Yes
Forced : No
Statistics Tags Issue : mkvmerge v32.0.0 ('Astral Progressions') 32-bit 2019-12-12 21:37:39 / Lavf58.30.100
FromStats_BitRate : 640000
FromStats_Duration : 01:31:34.816000000
FromStats_FrameCount : 171713
FromStats_StreamSize : 439585280

Text
ID : 3
Format : ASS
Codec ID : S_TEXT/ASS
Codec ID/Info : Advanced Sub Station Alpha
Compression mode : Lossless
Title : English [Forced]
Writing library : Lavc58.55.100 ssa
Language : English
Default : No
Forced : Yes
Statistics Tags Issue : mkvmerge v32.0.0 ('Astral Progressions') 32-bit 2019-12-12 21:37:39 / Lavf58.30.100
FromStats_BitRate : 0
FromStats_Duration : 00:59:29.800000000
FromStats_FrameCount : 4
FromStats_StreamSize : 107

Menu
00:00:00.000 : :Amazon Original
00:00:05.000 : :Welcome to Cambodia
00:00:38.000 : :Title Sequence
00:00:49.000 : :The challenge
00:05:01.000 : :Everyone picks their boats
00:11:24.000 : :A rough start to the journey
00:18:18.000 : :Making camp for the night
00:21:44.000 : :Shopping for provisions
00:24:49.000 : :Making their way across the lake
00:30:45.000 : :Testing out what the boats can do
00:36:40.000 : :Arriving in Phnom Penh
00:43:53.000 : :Journey to the Mekong River
00:49:03.000 : :Entering Vietnam
00:52:35.000 : :The story of heroism in Chau Doc
00:54:28.000 : :Navigating in the dark
00:59:53.000 : :Getting lost
01:07:08.000 : :A busy river route
01:14:26.000 : :The Forest of the Assassins
01:19:57.000 : :An epic adventure
01:21:37.000 : :What could possibly go wrong?
01:29:01.000 : :A treacherous journey to the finish line
01:30:54.000 : :End Credits





The Grand Tour S04E01


The Grand Tour S04E01


The Grand Tour S04E01


The Grand Tour S04E01


The Grand Tour S04E01

All episodes