The Handmaid's Tale S02E03

Posted By: Tavaz
1080p (FullHD) / BDRip IMDb
The Handmaid's Tale S02E03

The Handmaid's Tale S02E03

Set in a dystopian future, a woman is forced to live as a concubine under a fundamentalist theocratic dictatorship. A TV adaptation of Margaret Atwood's novel.

The.Handmaids.Tale.S02E03.Baggage.1080p.BluRay.REMUX.AVC.DTS-HD.MA.5.1-EPSiLON=2d37043b07850b3cc1a3f3e22983bf8712aa7e0f.part1.rar (5.4 GB)
The.Handmaids.Tale.S02E03.Baggage.1080p.BluRay.REMUX.AVC.DTS-HD.MA.5.1-EPSiLON=2d37043b07850b3cc1a3f3e22983bf8712aa7e0f.part2.rar (5.0 GB)



General
Unique ID : 61818820347711579719628557780882563095 (0x2E81DF29445DA2C3465B18B3F70C2017)
Complete name : ./2637e7c27a2d4e54944f8691498cf7dd.mkv
Format : Matroska
Format version : Version 4 / Version 2
File size : 10.2 GiB
Duration : 58 min 6 s
Overall bit rate mode : Variable
Overall bit rate : 25.2 Mb/s
Movie name : The Handmaid's Tale - S02E03 - Baggage
Encoded date : UTC 2018-12-05 09:44:48
Writing application : mkvmerge v28.2.0 ('The Awakening') 64-bit
Writing library : libebml v1.3.6 + libmatroska v1.4.9

Video
ID : 1
Format : AVC
Format/Info : Advanced Video Codec
Format profile : High@L4.1
Format settings : CABAC / 4 Ref Frames
Format settings, CABAC : Yes
Format settings, RefFrames : 4 frames
Codec ID : V_MPEG4/ISO/AVC
Duration : 58 min 6 s
Bit rate mode : Variable
Bit rate : 21.3 Mb/s
Maximum bit rate : 39.0 Mb/s
Width : 1 920 pixels
Height : 1 080 pixels
Display aspect ratio : 16:9
Frame rate mode : Constant
Frame rate : 23.976 (24000/1001) FPS
Color space : YUV
Chroma subsampling : 4:2:0
Bit depth : 8 bits
Scan type : Progressive
Bits/(Pixel*Frame) : 0.429
Stream size : 8.66 GiB (85%)
Title : MPEG-4 AVC Video / 21492 kbps / 1080p / 23.976 fps / 16:9 / High Profile 4.1
Language : English
Default : Yes
Forced : No

Audio
ID : 2
Format : DTS
Format/Info : Digital Theater Systems
Format profile : MA / Core
Mode : 16
Format settings, Endianness : Big
Codec ID : A_DTS
Duration : 58 min 6 s
Bit rate mode : Variable / Constant
Bit rate : 3 753 kb/s / 1 509 kb/s
Channel(s) : 6 channels
Channel positions : Front: L C R, Side: L R, LFE
Sampling rate : 48.0 kHz
Frame rate : 93.750 FPS (512 SPF)
Bit depth : 24 bits
Compression mode : Lossless / Lossy
Stream size : 1.52 GiB (15%)
Title : DTS-HD Master Audio / 5.1 / 48 kHz / 3753 kbps / 24-bit
Language : English
Default : Yes
Forced : No

Text #1
ID : 3
Format : PGS
Codec ID : S_HDMV/PGS
Codec ID/Info : Picture based subtitle format used on BDs/HD-DVDs
Duration : 56 min 29 s
Bit rate : 27.3 kb/s
Count of elements : 1204
Stream size : 11.0 MiB (0%)
Title : SDH
Language : English
Default : No
Forced : No

Text #2
ID : 4
Format : PGS
Codec ID : S_HDMV/PGS
Codec ID/Info : Picture based subtitle format used on BDs/HD-DVDs
Duration : 57 min 56 s
Bit rate : 15.2 kb/s
Count of elements : 764
Stream size : 6.32 MiB (0%)
Language : French
Default : No
Forced : No

Text #3
ID : 5
Format : PGS
Codec ID : S_HDMV/PGS
Codec ID/Info : Picture based subtitle format used on BDs/HD-DVDs
Duration : 57 min 49 s
Bit rate : 19.0 kb/s
Count of elements : 814
Stream size : 7.88 MiB (0%)
Language : German
Default : No
Forced : No

Text #4
ID : 6
Format : PGS
Codec ID : S_HDMV/PGS
Codec ID/Info : Picture based subtitle format used on BDs/HD-DVDs
Duration : 57 min 53 s
Bit rate : 17.5 kb/s
Count of elements : 854
Stream size : 7.23 MiB (0%)
Title : Latin American
Language : Spanish
Default : No
Forced : No

Menu
00:00:00.000 : en:Chapter 1
00:00:59.268 : en:Chapter 2
00:04:40.697 : en:Chapter 3
00:09:21.478 : en:Chapter 4
00:14:42.256 : en:Chapter 5
00:20:12.670 : en:Chapter 6
00:25:43.667 : en:Chapter 7
00:30:44.551 : en:Chapter 8
00:37:03.221 : en:Chapter 9
00:43:15.468 : en:Chapter 10
00:50:26.565 : en:Chapter 11
00:56:34.349 : en:Chapter 12





The Handmaid's Tale S02E03


The Handmaid's Tale S02E03


The Handmaid's Tale S02E03


The Handmaid's Tale S02E03


The Handmaid's Tale S02E03

All episodes