The Handmaid's Tale S02E07

Posted By: Tavaz
1080p (FullHD) / BDRip IMDb
The Handmaid's Tale S02E07

The Handmaid's Tale S02E07

Set in a dystopian future, a woman is forced to live as a concubine under a fundamentalist theocratic dictatorship. A TV adaptation of Margaret Atwood's novel.

The.Handmaids.Tale.S02E07.After.1080p.BluRay.REMUX.AVC.DTS-HD.MA.5.1-EPSiLON=14936da1f953c05b3f24cc680b2c4ac0db81c7c9.part1.rar (5.2 GB)
The.Handmaids.Tale.S02E07.After.1080p.BluRay.REMUX.AVC.DTS-HD.MA.5.1-EPSiLON=14936da1f953c05b3f24cc680b2c4ac0db81c7c9.part2.rar (4.8 GB)



General
Unique ID : 25980651411985576604124988240715335664 (0x138BB1030EB4E9A24A0E86DA11E047F0)
Complete name : ./6d02e101047e4f3eaef651679e39f73b.mkv
Format : Matroska
Format version : Version 4 / Version 2
File size : 9.88 GiB
Duration : 55 min 16 s
Overall bit rate mode : Variable
Overall bit rate : 25.6 Mb/s
Movie name : The Handmaid's Tale - S02E07 - After
Encoded date : UTC 2018-12-05 09:53:10
Writing application : mkvmerge v28.2.0 ('The Awakening') 64-bit
Writing library : libebml v1.3.6 + libmatroska v1.4.9

Video
ID : 1
Format : AVC
Format/Info : Advanced Video Codec
Format profile : High@L4.1
Format settings : CABAC / 4 Ref Frames
Format settings, CABAC : Yes
Format settings, RefFrames : 4 frames
Codec ID : V_MPEG4/ISO/AVC
Duration : 55 min 16 s
Bit rate mode : Variable
Bit rate : 22.7 Mb/s
Maximum bit rate : 39.0 Mb/s
Width : 1 920 pixels
Height : 1 080 pixels
Display aspect ratio : 16:9
Frame rate mode : Constant
Frame rate : 23.976 (24000/1001) FPS
Color space : YUV
Chroma subsampling : 4:2:0
Bit depth : 8 bits
Scan type : Progressive
Bits/(Pixel*Frame) : 0.457
Stream size : 8.77 GiB (89%)
Title : MPEG-4 AVC Video / 22991 kbps / 1080p / 23.976 fps / 16:9 / High Profile 4.1
Language : English
Default : Yes
Forced : No

Audio
ID : 2
Format : DTS
Format/Info : Digital Theater Systems
Format profile : MA / Core
Mode : 16
Format settings, Endianness : Big
Codec ID : A_DTS
Duration : 55 min 16 s
Bit rate mode : Variable / Constant
Bit rate : 2 768 kb/s / 1 509 kb/s
Channel(s) : 6 channels
Channel positions : Front: L C R, Side: L R, LFE
Sampling rate : 48.0 kHz
Frame rate : 93.750 FPS (512 SPF)
Bit depth : 24 bits
Compression mode : Lossless / Lossy
Stream size : 1.07 GiB (11%)
Title : DTS-HD Master Audio / 5.1 / 48 kHz / 2768 kbps / 24-bit
Language : English
Default : Yes
Forced : No

Text #1
ID : 3
Format : PGS
Codec ID : S_HDMV/PGS
Codec ID/Info : Picture based subtitle format used on BDs/HD-DVDs
Duration : 55 min 0 s
Bit rate : 31.0 kb/s
Count of elements : 1386
Stream size : 12.2 MiB (0%)
Title : SDH
Language : English
Default : No
Forced : No

Text #2
ID : 4
Format : PGS
Codec ID : S_HDMV/PGS
Codec ID/Info : Picture based subtitle format used on BDs/HD-DVDs
Duration : 55 min 7 s
Bit rate : 21.0 kb/s
Count of elements : 1086
Stream size : 8.29 MiB (0%)
Language : French
Default : No
Forced : No

Text #3
ID : 5
Format : PGS
Codec ID : S_HDMV/PGS
Codec ID/Info : Picture based subtitle format used on BDs/HD-DVDs
Duration : 55 min 1 s
Bit rate : 24.1 kb/s
Count of elements : 1056
Stream size : 9.50 MiB (0%)
Language : German
Default : No
Forced : No

Text #4
ID : 6
Format : PGS
Codec ID : S_HDMV/PGS
Codec ID/Info : Picture based subtitle format used on BDs/HD-DVDs
Duration : 55 min 3 s
Bit rate : 19.5 kb/s
Count of elements : 1020
Stream size : 7.66 MiB (0%)
Title : Latin American
Language : Spanish
Default : No
Forced : No

Menu
00:00:00.000 : en:Chapter 1
00:00:48.340 : en:Chapter 2
00:06:00.443 : en:Chapter 3
00:10:10.026 : en:Chapter 4
00:15:26.926 : en:Chapter 5
00:21:58.359 : en:Chapter 6
00:26:46.897 : en:Chapter 7
00:30:08.432 : en:Chapter 8
00:35:49.356 : en:Chapter 9
00:40:55.119 : en:Chapter 10
00:47:02.903 : en:Chapter 11
00:53:44.430 : en:Chapter 12





The Handmaid's Tale S02E07


The Handmaid's Tale S02E07


The Handmaid's Tale S02E07


The Handmaid's Tale S02E07


The Handmaid's Tale S02E07

All episodes