Index
# A B C D E F G H I J K L M N O P Q R S T U V W Y Z
Tags
Language
Tags
February 2023
Su Mo Tu We Th Fr Sa
29 30 31 1 2 3 4
5 6 7 8 9 10 11
12 13 14 15 16 17 18
19 20 21 22 23 24 25
26 27 28 1 2 3 4

Featured TV Shows


The Handmaid’s Tale : la servante écarlate S02E08

Posted By: Tavaz
720p (HD) / HDTV IMDb
The Handmaid’s Tale : la servante écarlate S02E08

The Handmaid’s Tale : la servante écarlate S02E08
HDTV | MKV | 1280x640 | English | H264 @ 1636 kbps | AC-3 @ 384 kbps | 50 min 21 s | 743 MiB
Genre: Drame

Dans une société dystopique et totalitaire au très bas taux de natalité, les femmes sont divisées en trois catégories : les Epouses, qui dominent la maison, les Marthas, qui l'entretiennent, et les Servantes, dont le rôle est la reproduction.

The.Handmaids.Tale.S02E08.FRENCH.720p.HDTV.x264-SH0W.mkv (742.7 MB)
the.handmaids.tale.s02e08.french.720p.hdtv.x264-sh0w.sample.mkv (11.7 MB)



General
Complete name : ./The.Handmaids.Tale.S02E08.FRENCH.720p.HDTV.x264-SH0W.mkv
Format : Matroska
Format version : Version 2
File size : 743 MiB
Duration : 50 min 21 s
Overall bit rate : 2 062 kb/s
Writing application : x264.exe
Writing library : mkv2rls x264-tv version built on 2016.10.12

Video
ID : 1
Format : AVC
Format/Info : Advanced Video Codec
Format profile : High@L4.1
Format settings : CABAC / 5 Ref Frames
Format settings, CABAC : Yes
Format settings, RefFrames : 5 frames
Codec ID : V_MPEG4/ISO/AVC
Duration : 50 min 21 s
Bit rate : 1 637 kb/s
Width : 1 280 pixels
Height : 640 pixels
Display aspect ratio : 2.000
Frame rate mode : Constant
Frame rate : 25.000 FPS
Color space : YUV
Chroma subsampling : 4:2:0
Bit depth : 8 bits
Scan type : Progressive
Bits/(Pixel*Frame) : 0.080
Stream size : 590 MiB (79%)
Writing library : x264 core 155 r2901 7d0ff22
Encoding settings : cabac=1 / ref=5 / deblock=1:0:0 / analyse=0x3:0x113 / me=umh / subme=9 / psy=1 / psy_rd=1.00:0.00 / mixed_ref=1 / me_range=16 / chroma_me=1 / trellis=2 / 8x8dct=1 / cqm=0 / deadzone=21,11 / fast_pskip=1 / chroma_qp_offset=-2 / threads=12 / lookahead_threads=1 / sliced_threads=0 / nr=0 / decimate=1 / interlaced=0 / bluray_compat=0 / constrained_intra=0 / bframes=3 / b_pyramid=2 / b_adapt=1 / b_bias=0 / direct=3 / weightb=1 / open_gop=0 / weightp=2 / keyint=250 / keyint_min=25 / scenecut=40 / intra_refresh=0 / rc_lookahead=50 / rc=crf / mbtree=1 / crf=18.0 / qcomp=0.60 / qpmin=0 / qpmax=69 / qpstep=4 / ip_ratio=1.40 / aq=1:1.00
Language : English
Default : Yes
Forced : No
Color range : Limited
Matrix coefficients : BT.709

Audio
ID : 2
Format : AC-3
Format/Info : Audio Coding 3
Format settings, Endianness : Big
Codec ID : A_AC3
Duration : 50 min 21 s
Bit rate mode : Constant
Bit rate : 384 kb/s
Channel(s) : 6 channels
Channel positions : Front: L C R, Side: L R, LFE
Sampling rate : 48.0 kHz
Frame rate : 31.250 FPS (1536 SPF)
Bit depth : 16 bits
Compression mode : Lossy
Stream size : 138 MiB (19%)
Language : English
Service kind : Complete Main
Default : Yes
Forced : No





The Handmaid’s Tale : la servante écarlate S02E08


The Handmaid’s Tale : la servante écarlate S02E08


The Handmaid’s Tale : la servante écarlate S02E08


The Handmaid’s Tale : la servante écarlate S02E08


The Handmaid’s Tale : la servante écarlate S02E08

All episodes