Index
# A B C D E F G H I J K L M N O P Q R S T U V W Y Z
Tags
Language
Tags
February 2023
Su Mo Tu We Th Fr Sa
29 30 31 1 2 3 4
5 6 7 8 9 10 11
12 13 14 15 16 17 18
19 20 21 22 23 24 25
26 27 28 1 2 3 4

Featured TV Shows


The Handmaid’s Tale : la servante écarlate S02E11

Posted By: Tavaz
SD / HDTV IMDb
The Handmaid’s Tale : la servante écarlate S02E11

The Handmaid’s Tale : la servante écarlate S02E11
HDTV | MKV | 720x360 | English | H264 @ 503 kbps | AAC @ 118 kbps | 45 min 42 s | 204 MiB
Genre: Drame

Dans une société dystopique et totalitaire au très bas taux de natalité, les femmes sont divisées en trois catégories : les Epouses, qui dominent la maison, les Marthas, qui l'entretiennent, et les Servantes, dont le rôle est la reproduction.

the.handmaids.tale.s02e11.french.hdtv.x264-amb3r-sample.mkv (6.4 MB)
the.handmaids.tale.s02e11.french.hdtv.x264-amb3r.mkv (204.0 MB)



General
Unique ID : 127172809107870427769362016058285262756 (0x5FAC9794FF5184737552C456635887A4)
Complete name : ./the.handmaids.tale.s02e11.french.hdtv.x264-amb3r.mkv
Format : Matroska
Format version : Version 2
File size : 204 MiB
Duration : 45 min 42 s
Overall bit rate : 624 kb/s
Encoded date : UTC 2018-06-28 20:08:34
Writing application : mkvmerge v24.0.0 ('Beyond The Pale') 64-bit
Writing library : libebml v1.3.6 + libmatroska v1.4.9

Video
ID : 1
Format : AVC
Format/Info : Advanced Video Codec
Format profile : High@L3.1
Format settings : CABAC / 5 Ref Frames
Format settings, CABAC : Yes
Format settings, RefFrames : 5 frames
Codec ID : V_MPEG4/ISO/AVC
Duration : 45 min 42 s
Bit rate : 504 kb/s
Width : 720 pixels
Height : 360 pixels
Display aspect ratio : 2.000
Frame rate mode : Constant
Frame rate : 25.000 FPS
Color space : YUV
Chroma subsampling : 4:2:0
Bit depth : 8 bits
Scan type : Progressive
Bits/(Pixel*Frame) : 0.078
Stream size : 165 MiB (81%)
Writing library : x264 core 155 r2901 7d0ff22
Encoding settings : cabac=1 / ref=5 / deblock=1:-3:-3 / analyse=0x3:0x112 / me=umh / subme=8 / psy=1 / psy_rd=1.00:0.00 / mixed_ref=1 / me_range=32 / chroma_me=1 / trellis=2 / 8x8dct=1 / cqm=0 / deadzone=21,11 / fast_pskip=0 / chroma_qp_offset=-2 / threads=11 / lookahead_threads=2 / sliced_threads=0 / nr=0 / decimate=1 / interlaced=0 / bluray_compat=0 / constrained_intra=0 / bframes=5 / b_pyramid=2 / b_adapt=2 / b_bias=0 / direct=3 / weightb=1 / open_gop=0 / weightp=2 / keyint=250 / keyint_min=25 / scenecut=40 / intra_refresh=0 / rc_lookahead=50 / rc=crf / mbtree=1 / crf=19.0 / qcomp=0.60 / qpmin=0 / qpmax=69 / qpstep=4 / vbv_maxrate=17500 / vbv_bufsize=17500 / crf_max=0.0 / nal_hrd=none / filler=0 / ip_ratio=1.40 / aq=1:1.00
Default : Yes
Forced : No
Color range : Limited
Color primaries : BT.709
Transfer characteristics : BT.709
Matrix coefficients : BT.709

Audio
ID : 2
Format : AAC
Format/Info : Advanced Audio Codec
Format profile : LC
Codec ID : A_AAC-2
Duration : 45 min 42 s
Bit rate : 118 kb/s
Channel(s) : 2 channels
Channel positions : Front: L R
Sampling rate : 48.0 kHz
Frame rate : 46.875 FPS (1024 SPF)
Compression mode : Lossy
Delay relative to video : 9 ms
Stream size : 38.6 MiB (19%)
Default : Yes
Forced : No





The Handmaid’s Tale : la servante écarlate S02E11


The Handmaid’s Tale : la servante écarlate S02E11


The Handmaid’s Tale : la servante écarlate S02E11


The Handmaid’s Tale : la servante écarlate S02E11


The Handmaid’s Tale : la servante écarlate S02E11

All episodes