Please register here if you want to download anything!

If domain in your address bar is different from the list below
PLEASE LEAVE THAT SITE IMMEDIATELY
❗IT'S A DANGEROUS FAKE❗



Spicy Magazines for Men! ;-)

Featured TV Shows


The Handmaid's Tale S03E13

Posted By: Tavaz
720p (HD) / WEB-DL IMDb
The Handmaid's Tale S03E13

The Handmaid's Tale S03E13
WEB-DL | MKV | 1280x720 | English | H264 @ 1193 kbps | AAC @ 63 kbps | 1 h 5 min | 588 MiB
Subtitles: Spanish, English
Genre: Drama


Set in a dystopian future, a woman is forced to live as a concubine under a fundamentalist theocratic dictatorship. A TV adaptation of Margaret Atwood's novel.

The.Handmaids.Tale.S03E13.Mayday.720p.HULU.WEB-DL.AAC2.0.H.264-NTb.mkv (588.4 MB)



General
Unique ID : 69849834164971456011057367212910059013 (0x348C96B68AEC7D445936824EA48E1E05)
Complete name : ./The.Handmaids.Tale.S03E13.Mayday.720p.HULU.WEB-DL.AAC2.0.H.264-NTb.mkv
Format : Matroska
Format version : Version 4 / Version 2
File size : 588 MiB
Duration : 1 h 5 min
Overall bit rate : 1 259 kb/s
Encoded date : UTC 2019-08-14 04:05:19
Writing application : mkvmerge v31.0.0 ('Dolores In A Shoestand') 32-bit
Writing library : libebml v1.3.6 + libmatroska v1.4.9

Video
ID : 1
Format : AVC
Format/Info : Advanced Video Codec
Format profile : High@L3.1
Format settings : CABAC / 5 Ref Frames
Format settings, CABAC : Yes
Format settings, RefFrames : 5 frames
Codec ID : V_MPEG4/ISO/AVC
Duration : 1 h 5 min
Bit rate : 1 193 kb/s
Width : 1 280 pixels
Height : 720 pixels
Display aspect ratio : 16:9
Frame rate mode : Constant
Frame rate : 23.976 (24000/1001) FPS
Color space : YUV
Chroma subsampling : 4:2:0
Bit depth : 8 bits
Scan type : Progressive
Bits/(Pixel*Frame) : 0.054
Stream size : 558 MiB (95%)
Default : Yes
Forced : No

Audio
ID : 2
Format : AAC
Format/Info : Advanced Audio Codec
Format profile : HE-AAC / LC
Format settings : Explicit
Codec ID : A_AAC-2
Duration : 1 h 5 min
Bit rate : 64.0 kb/s
Channel(s) : 2 channels
Channel positions : Front: L R
Sampling rate : 48.0 kHz / 24.0 kHz
Frame rate : 23.438 FPS (1024 SPF)
Compression mode : Lossy
Stream size : 29.9 MiB (5%)
Default : Yes
Forced : No

Text #1
ID : 3
Format : UTF-8
Codec ID : S_TEXT/UTF8
Codec ID/Info : UTF-8 Plain Text
Duration : 1 h 5 min
Bit rate : 49 b/s
Count of elements : 930
Stream size : 23.5 KiB (0%)
Language : English
Default : No
Forced : No

Text #2
ID : 4
Format : UTF-8
Codec ID : S_TEXT/UTF8
Codec ID/Info : UTF-8 Plain Text
Duration : 1 h 5 min
Bit rate : 47 b/s
Count of elements : 890
Stream size : 22.5 KiB (0%)
Language : Spanish
Default : No
Forced : No





The Handmaid's Tale S03E13


The Handmaid's Tale S03E13


The Handmaid's Tale S03E13


The Handmaid's Tale S03E13


The Handmaid's Tale S03E13

All episodes