Please register here if you want to download anything!

If domain in your address bar is different from the list below
PLEASE LEAVE THAT SITE IMMEDIATELY
❗IT'S A DANGEROUS FAKE❗



Spicy Magazines for Men! ;-)

Featured TV Shows


The Hot Zone S01E01

Posted By: Tavaz
720p (HD) / WEB-DL IMDb
The Hot Zone S01E01

The Hot Zone S01E01
WEB-DL | MKV | 1280x640 | English | H264 @ 3315 kbps | E-AC-3 @ 640 kbps | 46 min 12 s | 1.28 GiB
Subtitles: English
Genre: Drama


Heroic U.S. Army scientist Dr. Nancy Jaax, working with a secret military specialized team, puts her life on the line to head off an Ebola outbreak before it spread to the human population.

The.Hot.Zone.S01E01.Arrival.720p.AMZN.WEB-DL.DDP5.1.H.264-NTG.mkv.vol06+05.PAR2 (3.2 MB)
The.Hot.Zone.S01E01.Arrival.720p.AMZN.WEB-DL.DDP5.1.H.264-NTG.mkv.vol01+02.PAR2 (1.3 MB)
The.Hot.Zone.S01E01.Arrival.720p.AMZN.WEB-DL.DDP5.1.H.264-NTG.mkv.vol34+30.PAR2 (18.5 MB)
The.Hot.Zone.S01E01.Arrival.720p.AMZN.WEB-DL.DDP5.1.H.264-NTG.mkv.vol00+01.PAR2 (667.4 KB)
The.Hot.Zone.S01E01.Arrival.720p.AMZN.WEB-DL.DDP5.1.H.264-NTG.mkv.vol11+08.PAR2 (5.0 MB)
The.Hot.Zone.S01E01.Arrival.720p.AMZN.WEB-DL.DDP5.1.H.264-NTG.mkv.vol19+15.PAR2 (9.3 MB)
The.Hot.Zone.S01E01.Arrival.720p.AMZN.WEB-DL.DDP5.1.H.264-NTG.mkv (1.3 GB)
The.Hot.Zone.S01E01.Arrival.720p.AMZN.WEB-DL.DDP5.1.H.264-NTG.mkv.vol03+03.PAR2 (1.9 MB)



General
Unique ID : 260200660052442230319041024353904138025 (0xC3C0D303A631483E2D8173B66CF49729)
Complete name : ./The.Hot.Zone.S01E01.Arrival.720p.AMZN.WEB-DL.DDP5.1.H.264-NTG.mkv
Format : Matroska
Format version : Version 4 / Version 2
File size : 1.28 GiB
Duration : 46 min 12 s
Overall bit rate : 3 958 kb/s
Encoded date : UTC 2019-05-28 07:11:31
Writing application : mkvmerge v21.0.0 ('Tardigrades Will Inherit The Earth') 64-bit
Writing library : libebml v1.3.5 + libmatroska v1.4.8

Video
ID : 1
Format : AVC
Format/Info : Advanced Video Codec
Format profile : High@L3.1
Format settings : CABAC / 4 Ref Frames
Format settings, CABAC : Yes
Format settings, RefFrames : 4 frames
Codec ID : V_MPEG4/ISO/AVC
Duration : 46 min 12 s
Bit rate mode : Constant
Bit rate : 3 316 kb/s
Nominal bit rate : 6 000 kb/s
Width : 1 280 pixels
Height : 640 pixels
Display aspect ratio : 2.000
Frame rate mode : Constant
Frame rate : 23.976 (24000/1001) FPS
Color space : YUV
Chroma subsampling : 4:2:0
Bit depth : 8 bits
Scan type : Progressive
Bits/(Pixel*Frame) : 0.169
Stream size : 1.07 GiB (84%)
Default : Yes
Forced : No
Color range : Limited
Color primaries : BT.709
Transfer characteristics : BT.709
Matrix coefficients : BT.709

Audio
ID : 2
Format : E-AC-3
Format/Info : Enhanced Audio Coding 3
Format settings, Endianness : Big
Codec ID : A_EAC3
Duration : 46 min 12 s
Bit rate mode : Constant
Bit rate : 640 kb/s
Channel(s) : 6 channels
Channel positions : Front: L C R, Side: L R, LFE
Sampling rate : 48.0 kHz
Frame rate : 187.500 FPS (256 SPF)
Compression mode : Lossy
Stream size : 212 MiB (16%)
Language : English
Service kind : Complete Main
Default : Yes
Forced : No

Text #1
ID : 3
Format : UTF-8
Codec ID : S_TEXT/UTF8
Codec ID/Info : UTF-8 Plain Text
Duration : 45 min 38 s
Bit rate : 61 b/s
Count of elements : 665
Stream size : 20.4 KiB (0%)
Language : English
Default : No
Forced : No

Text #2
ID : 4
Format : UTF-8
Codec ID : S_TEXT/UTF8
Codec ID/Info : UTF-8 Plain Text
Duration : 45 min 56 s
Bit rate : 60 b/s
Count of elements : 674
Stream size : 20.4 KiB (0%)
Title : SDH
Language : English
Default : No
Forced : No





The Hot Zone S01E01


The Hot Zone S01E01


The Hot Zone S01E01


The Hot Zone S01E01


The Hot Zone S01E01

All episodes