The Kominsky Method S01E04

Posted By: Tavaz
SD / WEBRip IMDb
The Kominsky Method S01E04

The Kominsky Method S01E04
WEBRip | MKV | 720x382 | English | H264 @ 755 kbps | E-AC-3 @ 128 kbps | 23 min 13 s | 148 MiB
Subtitles: Swedish, Portuguese, Indonesian, Norwegian Bokmal, Finnish, Danish, German, Spanish, French, Greek, Turkish, Dutch, Russian, Polish, English, Italian
Genre: Comedy, Drama

An aging actor, who long ago enjoyed a brush with fame, makes his living as an acting coach.

the.kominsky.method.s01e04.webrip.x264-strife.mkv (147.6 MB)



General
Unique ID : 51283205874132663298573760704333484158 (0x2694C9435608156052C67430D6A8107E)
Complete name : ./the.kominsky.method.s01e04.webrip.x264-strife.mkv
Format : Matroska
Format version : Version 4 / Version 2
File size : 148 MiB
Duration : 23 min 13 s
Overall bit rate : 888 kb/s
Encoded date : UTC 2018-11-17 11:59:33
Writing application : mkvmerge v21.0.0 ('Tardigrades Will Inherit The Earth') 64-bit
Writing library : libebml v1.3.5 + libmatroska v1.4.8

Video
ID : 1
Format : AVC
Format/Info : Advanced Video Codec
Format profile : High@L3.1
Format settings : CABAC / 5 Ref Frames
Format settings, CABAC : Yes
Format settings, RefFrames : 5 frames
Codec ID : V_MPEG4/ISO/AVC
Duration : 23 min 13 s
Bit rate : 756 kb/s
Width : 720 pixels
Height : 382 pixels
Display aspect ratio : 1.887
Original display aspect ratio : 1.890
Frame rate mode : Constant
Frame rate : 23.976 (24000/1001) FPS
Color space : YUV
Chroma subsampling : 4:2:0
Bit depth : 8 bits
Scan type : Progressive
Bits/(Pixel*Frame) : 0.115
Stream size : 126 MiB (85%)
Writing library : x264 core 157 r2935 545de2f
Encoding settings : cabac=1 / ref=5 / deblock=1:-3:-3 / analyse=0x3:0x113 / me=hex / subme=8 / psy=1 / psy_rd=1.00:0.15 / mixed_ref=1 / me_range=16 / chroma_me=1 / trellis=2 / 8x8dct=1 / cqm=0 / deadzone=21,11 / fast_pskip=0 / chroma_qp_offset=-2 / threads=12 / lookahead_threads=2 / sliced_threads=0 / nr=0 / decimate=1 / interlaced=0 / bluray_compat=0 / constrained_intra=0 / bframes=3 / b_pyramid=2 / b_adapt=1 / b_bias=0 / direct=3 / weightb=1 / open_gop=0 / weightp=2 / keyint=250 / keyint_min=23 / scenecut=40 / intra_refresh=0 / rc_lookahead=50 / rc=crf / mbtree=1 / crf=19.0 / qcomp=0.60 / qpmin=0 / qpmax=69 / qpstep=4 / ip_ratio=1.40 / aq=3:0.80
Language : English
Default : Yes
Forced : No
Color range : Limited
Matrix coefficients : BT.709

Audio
ID : 2
Format : E-AC-3
Format/Info : Enhanced Audio Coding 3
Format settings, Endianness : Big
Codec ID : A_EAC3
Duration : 23 min 13 s
Bit rate mode : Constant
Bit rate : 128 kb/s
Channel(s) : 2 channels
Channel positions : Front: L R
Sampling rate : 48.0 kHz
Frame rate : 187.500 FPS (256 SPF)
Compression mode : Lossy
Stream size : 21.3 MiB (14%)
Language : English
Service kind : Complete Main
Default : Yes
Forced : No

Text #1
ID : 3
Format : UTF-8
Codec ID : S_TEXT/UTF8
Codec ID/Info : UTF-8 Plain Text
Duration : 21 min 8 s
Bit rate : 79 b/s
Count of elements : 410
Stream size : 12.4 KiB (0%)
Language : English
Default : No
Forced : No

Text #2
ID : 4
Format : UTF-8
Codec ID : S_TEXT/UTF8
Codec ID/Info : UTF-8 Plain Text
Duration : 22 min 26 s
Bit rate : 61 b/s
Count of elements : 376
Stream size : 10.1 KiB (0%)
Title : Brazilian
Language : Portuguese
Default : No
Forced : No

Text #3
ID : 5
Format : UTF-8
Codec ID : S_TEXT/UTF8
Codec ID/Info : UTF-8 Plain Text
Duration : 22 min 26 s
Bit rate : 62 b/s
Count of elements : 378
Stream size : 10.3 KiB (0%)
Language : Danish
Default : No
Forced : No

Text #4
ID : 6
Format : UTF-8
Codec ID : S_TEXT/UTF8
Codec ID/Info : UTF-8 Plain Text
Duration : 22 min 26 s
Bit rate : 65 b/s
Count of elements : 380
Stream size : 10.7 KiB (0%)
Language : Dutch
Default : No
Forced : No

Text #5
ID : 7
Format : UTF-8
Codec ID : S_TEXT/UTF8
Codec ID/Info : UTF-8 Plain Text
Duration : 22 min 26 s
Bit rate : 61 b/s
Count of elements : 376
Stream size : 10.1 KiB (0%)
Title : European
Language : Spanish
Default : No
Forced : No

Text #6
ID : 8
Format : UTF-8
Codec ID : S_TEXT/UTF8
Codec ID/Info : UTF-8 Plain Text
Duration : 22 min 26 s
Bit rate : 64 b/s
Count of elements : 383
Stream size : 10.6 KiB (0%)
Language : Finnish
Default : No
Forced : No

Text #7
ID : 9
Format : UTF-8
Codec ID : S_TEXT/UTF8
Codec ID/Info : UTF-8 Plain Text
Duration : 22 min 26 s
Bit rate : 63 b/s
Count of elements : 378
Stream size : 10.5 KiB (0%)
Language : French
Default : No
Forced : No

Text #8
ID : 10
Format : UTF-8
Codec ID : S_TEXT/UTF8
Codec ID/Info : UTF-8 Plain Text
Duration : 22 min 26 s
Bit rate : 68 b/s
Count of elements : 368
Stream size : 11.3 KiB (0%)
Language : German
Default : No
Forced : No

Text #9
ID : 11
Format : UTF-8
Codec ID : S_TEXT/UTF8
Codec ID/Info : UTF-8 Plain Text
Duration : 22 min 26 s
Bit rate : 108 b/s
Count of elements : 370
Stream size : 17.9 KiB (0%)
Language : Greek
Default : No
Forced : No

Text #10
ID : 12
Format : UTF-8
Codec ID : S_TEXT/UTF8
Codec ID/Info : UTF-8 Plain Text
Duration : 22 min 26 s
Bit rate : 71 b/s
Count of elements : 375
Stream size : 11.8 KiB (0%)
Language : Indonesian
Default : No
Forced : No

Text #11
ID : 13
Format : UTF-8
Codec ID : S_TEXT/UTF8
Codec ID/Info : UTF-8 Plain Text
Duration : 22 min 26 s
Bit rate : 67 b/s
Count of elements : 382
Stream size : 11.2 KiB (0%)
Language : Italian
Default : No
Forced : No

Text #12
ID : 14
Format : UTF-8
Codec ID : S_TEXT/UTF8
Codec ID/Info : UTF-8 Plain Text
Duration : 22 min 29 s
Bit rate : 65 b/s
Count of elements : 375
Stream size : 10.8 KiB (0%)
Language : Norwegian Bokmal
Default : No
Forced : No

Text #13
ID : 15
Format : UTF-8
Codec ID : S_TEXT/UTF8
Codec ID/Info : UTF-8 Plain Text
Duration : 22 min 26 s
Bit rate : 62 b/s
Count of elements : 376
Stream size : 10.2 KiB (0%)
Language : Polish
Default : No
Forced : No

Text #14
ID : 16
Format : UTF-8
Codec ID : S_TEXT/UTF8
Codec ID/Info : UTF-8 Plain Text
Duration : 22 min 26 s
Bit rate : 67 b/s
Count of elements : 379
Stream size : 11.0 KiB (0%)
Language : Portuguese
Default : No
Forced : No

Text #15
ID : 17
Format : UTF-8
Codec ID : S_TEXT/UTF8
Codec ID/Info : UTF-8 Plain Text
Duration : 22 min 30 s
Bit rate : 109 b/s
Count of elements : 380
Stream size : 18.1 KiB (0%)
Language : Russian
Default : No
Forced : No

Text #16
ID : 18
Format : UTF-8
Codec ID : S_TEXT/UTF8
Codec ID/Info : UTF-8 Plain Text
Duration : 22 min 26 s
Bit rate : 69 b/s
Count of elements : 359
Stream size : 11.4 KiB (0%)
Language : Spanish
Default : No
Forced : No

Text #17
ID : 19
Format : UTF-8
Codec ID : S_TEXT/UTF8
Codec ID/Info : UTF-8 Plain Text
Duration : 22 min 26 s
Bit rate : 63 b/s
Count of elements : 355
Stream size : 10.4 KiB (0%)
Language : Swedish
Default : No
Forced : No

Text #18
ID : 20
Format : UTF-8
Codec ID : S_TEXT/UTF8
Codec ID/Info : UTF-8 Plain Text
Duration : 22 min 26 s
Bit rate : 70 b/s
Count of elements : 372
Stream size : 11.6 KiB (0%)
Language : Turkish
Default : No
Forced : No





The Kominsky Method S01E04


The Kominsky Method S01E04


The Kominsky Method S01E04


The Kominsky Method S01E04


The Kominsky Method S01E04

All episodes