Featured TV Shows


The Kominsky Method S02E07

Posted By: Tavaz
1080p (FullHD) / WEBRip IMDb
The Kominsky Method S02E07

The Kominsky Method S02E07
WEBRip | MKV | 1920x1080 | English | H264 @ 5110 kbps | E-AC-3 @ 640 kbps | 21 min 44 s | 877 MiB
Subtitles: German, Greek, Italian, French, English
Genre: Comedy, Drama


An aging actor, who long ago enjoyed a brush with fame, makes his living as an acting coach.

ca76964ece304503b9a5b018514bb019.mkv (877.4 MB)



General
Unique ID : 58720980400081251202288033795603986115 (0x2C2D3FDC0FDD8A9E2CD4E8D0D31076C3)
Complete name : ./ca76964ece304503b9a5b018514bb019.mkv
Format : Matroska
Format version : Version 4 / Version 2
File size : 877 MiB
Duration : 21 min 44 s
Overall bit rate mode : Variable
Overall bit rate : 5 644 kb/s
Encoded date : UTC 2019-10-25 07:02:45
Writing application : mkvmerge v37.0.0 ('Leave It') 64-bit
Writing library : libebml v1.3.9 + libmatroska v1.5.2

Video
ID : 1
Format : AVC
Format/Info : Advanced Video Codec
Format profile : Main@L4
Format settings : CABAC / 3 Ref Frames
Format settings, CABAC : Yes
Format settings, RefFrames : 3 frames
Codec ID : V_MPEG4/ISO/AVC
Duration : 21 min 43 s
Bit rate mode : Variable
Bit rate : 5 110 kb/s
Maximum bit rate : 7 665 kb/s
Width : 1 920 pixels
Height : 1 080 pixels
Display aspect ratio : 16:9
Frame rate mode : Constant
Frame rate : 23.976 (24000/1001) FPS
Color space : YUV
Chroma subsampling : 4:2:0
Bit depth : 8 bits
Scan type : Progressive
Bits/(Pixel*Frame) : 0.103
Stream size : 777 MiB (89%)
Writing library : x264 core 148 r2715 7e75228
Encoding settings : cabac=1 / ref=3 / deblock=1:0:0 / analyse=0x1:0x111 / me=umh / subme=10 / psy=1 / psy_rd=1.00:0.00 / mixed_ref=1 / me_range=24 / chroma_me=1 / trellis=2 / 8x8dct=0 / cqm=0 / deadzone=21,11 / fast_pskip=1 / chroma_qp_offset=-2 / threads=8 / lookahead_threads=1 / sliced_threads=0 / nr=0 / decimate=1 / interlaced=0 / bluray_compat=0 / stitchable=1 / constrained_intra=0 / bframes=2 / b_pyramid=0 / b_adapt=2 / b_bias=0 / direct=3 / weightb=1 / open_gop=0 / weightp=2 / keyint=250 / keyint_min=23 / scenecut=0 / intra_refresh=0 / rc_lookahead=48 / rc=2pass / mbtree=1 / bitrate=5110 / ratetol=1.0 / qcomp=0.50 / qpmin=6 / qpmax=51 / qpstep=4 / cplxblur=20.0 / qblur=0.5 / vbv_maxrate=7665 / vbv_bufsize=10220 / nal_hrd=vbr / filler=0 / ip_ratio=1.40 / aq=1:1.00
Language : English
Default : Yes
Forced : No

Audio
ID : 2
Format : E-AC-3
Format/Info : Enhanced Audio Coding 3
Format settings, Endianness : Big
Codec ID : A_EAC3
Duration : 21 min 44 s
Bit rate mode : Constant
Bit rate : 640 kb/s
Channel(s) : 6 channels
Channel positions : Front: L C R, Side: L R, LFE
Sampling rate : 48.0 kHz
Frame rate : 187.500 FPS (256 SPF)
Compression mode : Lossy
Stream size : 99.5 MiB (11%)
Title : English
Language : English
Service kind : Complete Main
Default : Yes
Forced : No

Text #1
ID : 3
Format : UTF-8
Codec ID : S_TEXT/UTF8
Codec ID/Info : UTF-8 Plain Text
Duration : 19 min 58 s
Bit rate : 91 b/s
Count of elements : 442
Stream size : 13.3 KiB (0%)
Title : English (SDH)
Language : English
Default : No
Forced : No

Text #2
ID : 4
Format : UTF-8
Codec ID : S_TEXT/UTF8
Codec ID/Info : UTF-8 Plain Text
Duration : 20 min 49 s
Bit rate : 80 b/s
Count of elements : 416
Stream size : 12.3 KiB (0%)
Title : French
Language : French
Default : No
Forced : No

Text #3
ID : 5
Format : UTF-8
Codec ID : S_TEXT/UTF8
Codec ID/Info : UTF-8 Plain Text
Duration : 20 min 49 s
Bit rate : 77 b/s
Count of elements : 413
Stream size : 11.8 KiB (0%)
Title : German
Language : German
Default : No
Forced : No

Text #4
ID : 6
Format : UTF-8
Codec ID : S_TEXT/UTF8
Codec ID/Info : UTF-8 Plain Text
Duration : 20 min 49 s
Bit rate : 131 b/s
Count of elements : 402
Stream size : 20.1 KiB (0%)
Title : Greek
Language : Greek
Default : No
Forced : No

Text #5
ID : 7
Format : UTF-8
Codec ID : S_TEXT/UTF8
Codec ID/Info : UTF-8 Plain Text
Duration : 20 min 49 s
Bit rate : 76 b/s
Count of elements : 416
Stream size : 11.6 KiB (0%)
Title : Italian
Language : Italian
Default : No
Forced : No





The Kominsky Method S02E07


The Kominsky Method S02E07


The Kominsky Method S02E07


The Kominsky Method S02E07


The Kominsky Method S02E07

All episodes